<?xml version="1.0" standalone="no"?>
<!DOCTYPE svg PUBLIC "-//W3C//DTD SVG 1.1//EN" "http://www.w3.org/Graphics/SVG/1.1/DTD/svg11.dtd" >
<svg xmlns="http://www.w3.org/2000/svg">
<metadata>Generated by IcoMoon</metadata>
<defs>
<font id="icomoon" horiz-adv-x="1024">
<font-face units-per-em="1024" ascent="960" descent="-64" />
<missing-glyph horiz-adv-x="1024" />
<glyph unicode="&#x20;" horiz-adv-x="512" d="" />
<glyph unicode="&#xe900;" glyph-name="Line" d="M181.333 704c0 17.673 14.327 32 32 32h597.333c17.673 0 32-14.327 32-32s-14.327-32-32-32h-597.333c-17.673 0-32 14.327-32 32zM181.333 192c0 17.673 14.327 32 32 32h597.333c17.673 0 32-14.327 32-32s-14.327-32-32-32h-597.333c-17.673 0-32 14.327-32 32zM181.333 448c0 17.673 14.327 32 32 32h597.333c17.673 0 32-14.327 32-32s-14.327-32-32-32h-597.333c-17.673 0-32 14.327-32 32z" />
<glyph unicode="&#xe901;" glyph-name="d-cube-scan" d="M938.667 544c-17.493 0-32 14.507-32 32v85.333c0 110.080-71.253 181.333-181.333 181.333h-426.667c-110.080 0-181.333-71.253-181.333-181.333v-85.333c0-17.493-14.507-32-32-32s-32 14.507-32 32v85.333c0 146.773 98.56 245.333 245.333 245.333h426.667c146.773 0 245.333-98.56 245.333-245.333v-85.333c0-17.493-14.507-32-32-32zM725.333-10.667h-426.667c-146.773 0-245.333 98.56-245.333 245.333v85.333c0 17.493 14.507 32 32 32s32-14.507 32-32v-85.333c0-110.080 71.253-181.333 181.333-181.333h426.667c110.080 0 181.333 71.253 181.333 181.333v85.333c0 17.493 14.507 32 32 32s32-14.507 32-32v-85.333c0-146.773-98.56-245.333-245.333-245.333zM512.026 401.92c-5.547 0-11.093 1.284-16.213 4.271l-226.133 130.559c-15.36 8.96-20.48 28.585-11.52 43.945s28.587 20.481 43.52 11.521l209.92-121.599 208.64 120.745c15.36 8.96 34.987 3.415 43.52-11.518 8.96-15.36 3.413-34.988-11.52-43.948l-224.427-129.705c-4.693-2.56-10.24-4.271-15.787-4.271zM512 169.809c-17.493 0-32 14.507-32 32v232.107c0 17.493 14.507 32 32 32s32-14.507 32-32v-232.107c0-17.493-14.507-32-32-32zM512.009 160.009c-24.747 0-49.067 5.547-68.693 16.213l-136.532 75.947c-40.96 22.613-72.533 76.8-72.533 123.733v144.64c0 46.507 32 100.692 72.533 123.732l136.532 75.948c39.253 21.76 98.133 21.76 137.387 0l136.533-75.948c40.96-22.613 72.533-76.799 72.533-123.732v-144.64c0-46.507-32-100.693-72.533-123.733l-136.533-75.947c-19.627-10.667-43.947-16.213-68.693-16.213zM474.462 663.901l-136.532-75.945c-20.907-11.52-39.68-43.948-39.68-67.414v-144.64c0-23.893 18.773-55.893 39.68-67.413l136.532-75.947c19.627-10.667 55.467-10.667 75.093 0l136.533 75.947c20.907 11.52 39.68 43.947 39.68 67.413v144.64c0 23.893-18.773 55.894-39.68 67.414l-136.533 75.945c-19.627 10.667-55.467 10.667-75.093 0z" />
<glyph unicode="&#xe902;" glyph-name="d-rotate" d="M512.026 401.933c-5.547 0-11.093 1.28-16.213 4.267l-226.133 130.56c-15.36 8.96-20.481 28.587-11.521 43.52 8.96 15.36 28.16 20.48 43.947 11.52l209.92-121.6 208.64 120.747c15.36 8.96 34.987 3.413 43.947-11.52 8.96-15.36 3.413-34.987-11.52-43.52l-224.427-129.707c-5.547-2.56-11.093-4.267-16.64-4.267zM512 169.809c-17.493 0-32 14.507-32 32v232.107c0 17.493 14.507 32 32 32s32-14.507 32-32v-232.107c0-17.493-14.507-32-32-32zM512.009 160.009c-24.747 0-49.062 5.547-68.689 16.213l-136.535 75.947c-40.96 22.613-72.534 76.8-72.534 123.733v144.64c0 46.506 32.001 101.12 72.534 123.733l136.535 75.947c39.253 21.76 98.129 21.76 137.382 0l136.533-75.947c40.96-22.613 72.538-76.8 72.538-123.733v-144.64c0-46.507-32.004-101.12-72.538-123.733l-136.533-75.947c-19.627-10.667-43.947-16.213-68.693-16.213zM512.009 672.009c-14.080 0-27.733-2.56-37.547-8.107l-136.531-75.947c-20.907-11.52-39.681-43.947-39.681-67.413v-144.64c0-23.893 18.775-55.893 39.681-67.413l136.531-75.947c19.627-11.093 55.467-11.093 75.093 0l136.533 75.947c20.907 11.52 39.684 43.947 39.684 67.413v144.64c0 23.893-18.778 55.893-39.684 67.413l-136.533 75.947c-9.813 5.547-23.467 8.107-37.547 8.107zM640.009-10.675c-11.52 0-22.187 6.4-27.733 16.213-5.547 10.24-5.547 22.187 0.427 32.427l44.8 74.667c8.96 14.933 28.587 20.053 43.947 11.093s20.053-28.587 11.093-43.947l-11.52-19.2c117.76 27.733 206.080 133.547 206.080 259.84 0 17.493 14.507 32 32 32s32-14.507 32-32c-0.427-182.613-148.907-331.093-331.093-331.093zM85.333 544c-17.493 0-32 14.507-32 32 0 182.187 148.48 330.667 330.667 330.667 11.52 0 22.186-6.4 27.733-16.213 5.547-10.24 5.548-22.187-0.426-32.427l-44.8-74.667c-8.96-14.933-28.587-20.053-43.947-11.093s-20.054 28.587-11.094 43.947l11.521 19.2c-117.76-27.733-206.081-133.547-206.081-259.84 0.427-17.067-14.080-31.573-31.573-31.573z" />
<glyph unicode="&#xe903;" glyph-name="d-square" d="M640-10.667h-256c-231.68 0-330.667 98.987-330.667 330.667v256c0 231.68 98.987 330.667 330.667 330.667h256c231.68 0 330.667-98.987 330.667-330.667v-256c0-231.68-98.987-330.667-330.667-330.667zM384 842.667c-196.693 0-266.667-69.973-266.667-266.667v-256c0-196.693 69.973-266.667 266.667-266.667h256c196.693 0 266.667 69.973 266.667 266.667v256c0 196.693-69.973 266.667-266.667 266.667h-256zM512.026 401.933c-5.547 0-11.093 1.28-16.213 4.267l-226.133 130.56c-15.36 8.96-20.481 28.587-11.521 43.52 8.96 15.36 28.588 20.48 43.521 11.52l209.92-121.6 208.64 120.747c15.36 8.96 34.987 3.413 43.52-11.52s3.413-34.987-11.52-43.52l-224.427-129.707c-4.693-2.56-10.24-4.267-15.787-4.267zM512 169.809c-17.493 0-32 14.507-32 32v232.107c0 17.493 14.507 32 32 32s32-14.507 32-32v-232.107c0-17.493-14.507-32-32-32zM512.009 160.009c-24.747 0-49.062 5.547-68.689 16.213l-136.535 75.947c-40.96 22.613-72.534 76.8-72.534 123.733v144.64c0 46.506 32.001 100.693 72.534 123.733l136.535 75.947c39.253 21.76 98.129 21.76 137.382 0l136.533-75.947c40.96-22.613 72.538-76.8 72.538-123.733v-144.64c0-46.507-32.004-100.693-72.538-123.733l-136.533-75.947c-19.627-11.093-43.947-16.213-68.693-16.213zM512.009 672.009c-14.080 0-27.733-2.56-37.547-8.107l-136.531-75.947c-20.907-11.52-39.681-43.947-39.681-67.413v-144.64c0-23.893 18.775-55.893 39.681-67.413l136.531-75.947c19.627-11.093 55.467-11.093 75.093 0l136.533 75.947c20.907 11.52 39.684 43.947 39.684 67.413v144.64c0 23.893-18.778 55.893-39.684 67.413l-136.533 75.947c-9.813 5.547-23.467 8.107-37.547 8.107z" />
<glyph unicode="&#xe904;" glyph-name="dcube" d="M512 437.329c-18.773 0-37.547 4.693-54.613 13.653l-277.76 149.76c-25.173 13.653-40.96 40.533-40.96 70.4s15.787 56.747 40.96 70.4l277.76 149.76c34.133 18.347 75.093 18.347 108.8 0l277.76-149.76c25.173-13.653 40.96-40.533 40.96-70.4s-15.787-56.747-40.96-70.4l-277.76-149.76c-16.64-9.387-35.413-13.653-54.187-13.653zM512 841.382c-8.107 0-16.64-2.133-24.32-6.4l-277.333-149.333c-7.253-3.84-7.68-11.947-7.68-14.507s0.427-10.667 7.68-14.080l277.76-149.76c15.36-8.107 32.853-8.107 48.213 0l277.76 149.76c6.827 3.84 7.68 11.947 7.68 14.080 0 2.56-0.427 10.667-7.68 14.080l-277.76 149.76c-7.68 4.267-16.213 6.4-24.32 6.4zM417.28-9.378c-11.947 0-24.32 2.987-35.413 8.533l-258.56 128.853c-43.093 21.76-69.973 65.28-69.973 113.493v244.053c0 27.733 14.080 52.908 37.547 67.415 23.893 14.507 52.48 15.787 77.227 3.413l258.56-128.855c43.093-21.76 69.973-64.853 69.973-113.493v-244.053c0-27.733-14.080-52.907-37.547-67.413-12.8-8.107-27.307-11.947-41.813-11.947zM132.693 500.915c-3.413 0-6.4-1.28-8.107-2.133-2.56-1.707-7.253-5.547-7.253-13.227v-244.053c0-23.893 13.227-45.653 34.56-56.32l258.133-129.28c6.827-3.413 12.373-0.853 14.933 0.427 2.56 1.707 7.253 5.547 7.253 13.227v244.053c0 23.893-13.227 45.653-34.56 56.32l-258.133 129.28c-2.56 1.28-4.693 1.707-6.827 1.707zM606.737-9.387c-14.507 0-29.013 3.84-41.813 11.947-23.467 14.507-37.547 39.68-37.547 67.413v244.053c0 48.213 26.88 91.733 69.973 113.493l258.133 129.28c24.747 12.373 53.76 11.093 77.227-3.413s37.547-39.68 37.547-67.413v-244.053c0-48.213-26.88-91.733-69.973-113.493l-258.133-129.28c-11.093-5.973-23.467-8.533-35.413-8.533zM891.324 500.907c-2.133 0-4.267-0.427-6.827-1.707l-258.133-129.28c-21.333-10.667-34.56-32-34.56-56.32v-244.053c0-7.68 4.693-11.52 7.253-13.227s8.107-3.84 14.933-0.427l258.133 129.28c21.333 10.667 34.56 32.427 34.56 56.32v244.053c0 7.68-4.693 11.52-7.253 13.227-1.707 0.853-4.693 2.133-8.107 2.133z" />
<glyph unicode="&#xe905;" glyph-name="full" d="M874.667 309.333c-17.493 0-32 14.507-32 32s14.507 32 32 32c25.173 0 30.72 3.84 31.147 3.84 0.853 2.56 0.853 17.493 0.853 28.16v85.333c0 10.667 0 25.173-1.707 29.013-0.427-0.427-6.827 2.987-30.293 2.987-17.493 0-32 14.507-32 32s14.507 32 32 32c88.747 0 96-43.52 96-96v-85.333c0-52.48-7.253-96-96-96zM272.195 330.662c-2.56 0-5.12 0.427-7.68 0.853-17.067 4.267-27.733 21.76-23.467 38.827 12.8 50.773 12.8 104.533 0 155.307-4.267 17.067 5.973 34.56 23.467 38.827 17.067 4.267 34.133-6.4 38.4-23.467 15.36-61.013 15.36-125.44 0-186.027-3.413-14.507-16.64-24.32-30.72-24.32zM421.529 330.658c-2.56 0-5.12 0.427-7.68 0.853-17.067 4.267-27.734 21.76-23.467 38.827 12.8 50.773 12.8 104.533 0 155.307-4.267 17.067 5.974 34.56 23.467 38.827 17.067 4.267 34.56-5.973 38.827-23.467 15.36-61.014 15.36-125.44 0-186.027-3.84-14.507-17.067-24.32-31.147-24.32zM554.667 117.333h-256c-188.16 0-245.333 57.173-245.333 245.333v170.667c0 188.16 57.173 245.333 245.333 245.333h256c188.16 0 245.333-57.173 245.333-245.333v-170.667c0-188.16-57.173-245.333-245.333-245.333zM298.667 714.667c-152.32 0-181.333-29.013-181.333-181.333v-170.667c0-152.32 29.013-181.333 181.333-181.333h256c152.32 0 181.333 29.013 181.333 181.333v170.667c0 152.32-29.013 181.333-181.333 181.333h-256z" />
<glyph unicode="&#xe906;" glyph-name="square1" d="M399.787-10.667h-202.667c-98.133 0-143.787 45.653-143.787 143.787v202.667c0 98.56 45.653 144.213 143.787 144.213h101.547c17.493 0 32-14.507 32-32v-101.12c0-62.293 17.92-80.213 79.787-80.213h101.547c17.493 0 32-14.507 32-32v-101.547c0-98.133-45.653-143.787-144.213-143.787zM197.12 416c-61.867 0-79.787-17.92-79.787-80.213v-202.667c0-61.867 17.92-79.787 79.787-79.787h202.667c62.293 0 80.213 17.92 80.213 79.787v69.547h-69.547c-98.133 0-143.787 45.653-143.787 144.213v69.12h-69.547zM613.12 202.667h-202.667c-98.133 0-143.787 45.653-143.787 144.213v202.667c0 98.133 45.653 143.787 143.787 143.787h101.547c17.493 0 32-14.507 32-32v-101.12c0-62.293 17.92-80.213 79.787-80.213h101.547c17.493 0 32-14.507 32-32v-101.12c0-98.56-45.653-144.213-144.213-144.213zM410.453 629.333c-61.867 0-79.787-17.92-79.787-79.787v-202.667c0-62.293 17.92-80.213 79.787-80.213h202.667c62.293 0 80.213 17.92 80.213 80.213v69.12h-69.547c-98.133 0-143.787 45.653-143.787 144.213v69.12h-69.547zM826.453 416h-202.667c-98.133 0-143.787 45.653-143.787 144.213v202.667c0 98.133 45.653 143.787 143.787 143.787h202.667c98.56 0 144.213-45.653 144.213-143.787v-202.667c0-98.56-45.653-144.213-144.213-144.213zM623.787 842.667c-61.867 0-79.787-17.92-79.787-79.787v-202.667c0-62.293 17.92-80.213 79.787-80.213h202.667c62.293 0 80.213 17.92 80.213 80.213v202.667c0 61.867-17.92 79.787-80.213 79.787h-202.667z" />
<glyph unicode="&#xe907;" glyph-name="support" d="M512-10.658c-29.867 0-60.16 11.524-82.773 34.138l-72.96 72.102c-18.347 17.92-42.241 27.738-67.841 27.738h-32.426c-88.32 0-160 71.249-160 158.716v465.496c0 87.467 71.68 158.719 160 158.719h512c88.32 0 160-71.252 160-158.719v-465.496c0-87.467-71.68-158.716-160-158.716h-32.427c-25.6 0-49.92-9.818-67.84-27.738l-72.96-72.102c-22.613-22.613-52.907-34.138-82.773-34.138zM256 842.677c-52.907 0-96-42.665-96-94.719v-465.496c0-52.48 43.093-94.716 96-94.716h32.426c42.667 0 82.774-16.64 113.067-46.507l72.96-72.111c20.907-20.48 54.613-20.48 75.52 0l72.96 72.111c30.293 29.867 70.4 46.507 113.067 46.507h32c52.907 0 96 42.662 96 94.716v465.496c0 52.48-43.093 94.719-96 94.719h-512zM442.889 340.907h-114.345c-18.773 0-36.267 8.964-47.36 24.324-10.667 14.507-13.227 32.422-8.107 49.489 14.933 45.653 51.627 70.4 84.053 92.587 34.133 23.040 53.333 37.546 53.333 62.292 0 22.187-17.92 40.109-40.107 40.109s-40.106-17.923-40.106-40.109c0-17.493-14.507-32-32-32s-32 14.507-32 32c0 57.173 46.506 104.109 104.106 104.109s104.106-46.509 104.106-104.109c0-60.159-45.227-90.879-81.492-115.626-22.613-15.36-43.948-29.867-54.614-49.067h104.106c17.493 0 32-14.507 32-32s-14.080-32-31.573-32zM684.369 340.911c-17.493 0-32 14.507-32 32v29.44h-83.627c0 0 0 0-0.427 0-20.907 0-40.107 11.089-50.773 29.009-10.667 18.347-10.667 40.964 0 58.884 29.013 49.918 62.72 106.666 93.44 156.16 13.653 21.76 39.68 31.571 64 24.745 24.32-7.253 41.387-29.441 40.96-55.041v-150.183h9.387c17.493 0 32-14.507 32-32s-14.507-32-32-32h-8.96v-29.444c0-17.493-14.080-31.569-32-31.569zM652.369 591.362c-25.173-40.96-51.2-84.905-74.667-125.011h74.667v125.011z" />
<glyph unicode="&#xe908;" glyph-name="aave-aave" d="M682.671 245.338c-12.373 0-23.893 7.253-29.44 19.2l-141.227 317.866-141.227-318.292c-7.253-16.213-26.453-23.467-42.24-16.213-16.213 7.253-23.467 26.027-16.214 42.24l170.667 383.999c10.24 23.040 48.213 23.040 58.453 0l170.667-383.999c7.253-16.213 0-34.987-16.213-42.24-4.267-1.707-8.96-2.56-13.227-2.56zM512 416h-170.667c-17.493 0-32 14.507-32 32s14.507 32 32 32h170.667c17.493 0 32-14.507 32-32s-14.507-32-32-32zM512-10.667c-253.013 0-458.667 205.653-458.667 458.667s205.653 458.667 458.667 458.667c253.013 0 458.667-205.653 458.667-458.667s-205.653-458.667-458.667-458.667zM512 842.667c-217.6 0-394.667-177.067-394.667-394.667s177.067-394.667 394.667-394.667c217.6 0 394.667 177.067 394.667 394.667s-177.067 394.667-394.667 394.667z" />
<glyph unicode="&#xe909;" glyph-name="Account" d="M503.471 607.146c-40.533 0-73.387-32.856-73.387-73.387 0-40.532 32.853-73.386 73.387-73.386 40.529 0 73.387 32.853 73.387 73.386 0 40.53-32.858 73.387-73.387 73.387zM366.083 533.759c0 75.877 61.509 137.387 137.388 137.387 75.874 0 137.387-61.51 137.387-137.387s-61.513-137.386-137.387-137.386c-75.878 0-137.388 61.508-137.388 137.386zM417.293 291.418c-51.944 0-94.293-42.065-94.293-94.293v-60.16c0-17.673-14.327-32-32-32s-32 14.327-32 32v60.16c0 87.714 71.144 158.293 158.293 158.293h189.013c87.718 0 158.293-71.147 158.293-158.293v-60.16c0-17.673-14.327-32-32-32s-32 14.327-32 32v60.16c0 51.942-42.065 94.293-94.293 94.293h-189.013zM512 810.667c-200.295 0-362.667-162.371-362.667-362.667s162.371-362.667 362.667-362.667c200.294 0 362.667 162.372 362.667 362.667s-162.372 362.667-362.667 362.667zM85.333 448c0 235.642 191.025 426.667 426.667 426.667 235.639 0 426.667-191.025 426.667-426.667 0-235.639-191.027-426.667-426.667-426.667-235.642 0-426.667 191.027-426.667 426.667z" />
<glyph unicode="&#xe90a;" glyph-name="activity" d="M640-10.667h-256c-231.68 0-330.667 98.987-330.667 330.667v256c0 231.68 98.987 330.667 330.667 330.667h256c231.68 0 330.667-98.987 330.667-330.667v-256c0-231.68-98.987-330.667-330.667-330.667zM384 842.667c-196.693 0-266.667-69.973-266.667-266.667v-256c0-196.693 69.973-266.667 266.667-266.667h256c196.693 0 266.667 69.973 266.667 266.667v256c0 196.693-69.973 266.667-266.667 266.667h-256zM312.751 309.76c-6.827 0-13.653 2.133-19.627 6.827-14.080 10.667-16.64 30.72-5.973 44.8l101.547 131.84c12.373 15.787 29.867 26.027 49.92 28.587 19.627 2.56 39.68-2.987 55.467-15.36l78.080-61.44c2.987-2.56 5.973-2.56 8.107-2.133 1.707 0 4.693 0.853 7.253 4.267l98.56 127.146c10.667 14.080 31.147 16.64 44.8 5.547 14.080-10.667 16.64-30.72 5.547-44.8l-98.56-127.146c-12.373-15.787-29.867-26.027-49.92-28.16-20.053-2.56-39.68 2.987-55.467 15.36l-78.080 61.44c-2.987 2.56-6.4 2.56-8.107 2.133-1.707 0-4.693-0.853-7.253-4.267l-101.546-131.84c-5.547-8.533-14.933-12.8-24.747-12.8z" />
<glyph unicode="&#xe90b;" glyph-name="delivery" horiz-adv-x="993" d="M82.75 44.606c-17.138 0-31.030 13.892-31.030 31.030v330.991c0 17.138 13.893 31.030 31.030 31.030h124.242v314.694c0 54.699 44.343 99.042 99.042 99.042h448.877c54.697 0 99.043-44.343 99.043-99.042v-389.949c29.609 3.435 59.566-9.461 77.2-34.971l0.211-0.304c28.241-41.249 13.501-97.941-31.254-120.211l-133.815-66.588c-81.588-40.597-171.477-61.729-262.609-61.729h-224.412v-2.963c0-17.138-13.893-31.030-31.030-31.030h-165.495zM279.275 140.66v176.054c3.915 0.959 7.708 2.703 11.144 5.26 27.269 20.312 60.363 31.282 94.363 31.282 21.212 0 42.189-4.437 61.58-13.027v0l59.327-26.28c3.956-1.753 8.239-2.659 12.567-2.659h101.593c10.287 0 18.624-8.341 18.624-18.624v-0.003c0-10.187-8.183-18.463-18.333-18.618l-145.101-0.003c-17.138 0-31.030-13.892-31.030-31.030s13.892-31.030 31.030-31.030l149.026 0.003c16.4 0 32.628 3.286 47.731 9.666l183.755 77.635c8.875 3.748 19.161 0.729 24.604-7.218l0.106-0.155c6.811-10.141 3.165-23.98-7.798-29.435l-133.815-66.585c-72.999-36.324-153.423-55.231-234.961-55.231h-224.412zM279.275 388.372v18.255c0 9.129-3.944 17.34-10.222 23.018v322.706c0 20.424 16.558 36.981 36.982 36.981h111.785v-128.212c0-11.632 6.507-22.288 16.856-27.604 10.346-5.312 22.798-4.394 32.253 2.383l63.538 45.538 63.535-45.538c9.455-6.777 21.907-7.696 32.256-2.383 10.346 5.315 16.853 15.971 16.853 27.604v128.212h111.802c20.424 0 36.982-16.558 36.982-36.981v-412.592l-91.785-38.775c-4.164 40.65-38.509 72.366-80.26 72.366h-95.027l-53.322 23.62c-27.31 12.099-56.851 18.345-86.717 18.345-37.032 0-73.294-9.343-105.507-26.944zM113.78 375.597v-268.93h103.434v268.93h-103.434zM581.049 721.539v67.794h-101.168v-67.794l32.507 23.299c10.808 7.745 25.349 7.745 36.153 0l32.507-23.299zM593.7 412.244c-17.138 0-31.030 13.892-31.030 31.030 0 17.135 13.892 31.030 31.030 31.030h114.325c17.138 0 31.030-13.895 31.030-31.030 0-17.138-13.892-31.030-31.030-31.030h-114.325z" />
<glyph unicode="&#xe90c;" glyph-name="add-3" d="M768 416h-512c-17.493 0-32 14.507-32 32s14.507 32 32 32h512c17.493 0 32-14.507 32-32s-14.507-32-32-32zM512 160c-17.493 0-32 14.507-32 32v512c0 17.493 14.507 32 32 32s32-14.507 32-32v-512c0-17.493-14.507-32-32-32z" />
<glyph unicode="&#xe90d;" glyph-name="add-circle" d="M512-10.667c-253.013 0-458.667 205.653-458.667 458.667s205.653 458.667 458.667 458.667c253.013 0 458.667-205.653 458.667-458.667s-205.653-458.667-458.667-458.667zM512 842.667c-217.6 0-394.667-177.067-394.667-394.667s177.067-394.667 394.667-394.667c217.6 0 394.667 177.067 394.667 394.667s-177.067 394.667-394.667 394.667zM682.667 416h-341.333c-17.493 0-32 14.507-32 32s14.507 32 32 32h341.333c17.493 0 32-14.507 32-32s-14.507-32-32-32zM512 245.333c-17.493 0-32 14.507-32 32v341.333c0 17.493 14.507 32 32 32s32-14.507 32-32v-341.333c0-17.493-14.507-32-32-32z" />
<glyph unicode="&#xe90e;" glyph-name="add-square" d="M682.667 416h-341.333c-17.493 0-32 14.507-32 32s14.507 32 32 32h341.333c17.493 0 32-14.507 32-32s-14.507-32-32-32zM512 245.333c-17.493 0-32 14.507-32 32v341.333c0 17.493 14.507 32 32 32s32-14.507 32-32v-341.333c0-17.493-14.507-32-32-32zM640-10.667h-256c-231.68 0-330.667 98.987-330.667 330.667v256c0 231.68 98.987 330.667 330.667 330.667h256c231.68 0 330.667-98.987 330.667-330.667v-256c0-231.68-98.987-330.667-330.667-330.667zM384 842.667c-196.693 0-266.667-69.973-266.667-266.667v-256c0-196.693 69.973-266.667 266.667-266.667h256c196.693 0 266.667 69.973 266.667 266.667v256c0 196.693-69.973 266.667-266.667 266.667h-256z" />
<glyph unicode="&#xe90f;" glyph-name="Add" d="M512 810.667c-200.354 0-362.667-162.313-362.667-362.667s162.313-362.667 362.667-362.667c200.354 0 362.667 162.313 362.667 362.667s-162.313 362.667-362.667 362.667zM85.333 448c0 235.7 190.967 426.667 426.667 426.667s426.667-190.967 426.667-426.667c0-235.699-190.967-426.667-426.667-426.667s-426.667 190.967-426.667 426.667zM713.041 449.583c0.137-17.673-14.076-32.115-31.748-32.252l-338.076-2.662c-17.673-0.137-32.111 14.076-32.25 31.748s14.074 32.111 31.747 32.252l338.076 2.658c17.673 0.141 32.111-14.071 32.252-31.744zM513.587 649.036c17.673-0.139 31.885-14.578 31.744-32.251l-2.658-338.074c-0.141-17.673-14.579-31.889-32.252-31.748-17.673 0.137-31.885 14.579-31.748 32.252l2.662 338.074c0.137 17.673 14.579 31.887 32.252 31.747z" />
<glyph unicode="&#xe910;" glyph-name="additem" d="M341.333 245.333h-109.653c-114.773 0-178.347 63.147-178.347 178.347v304.64c0 114.773 63.147 178.347 178.347 178.347h194.987c114.773 0 178.347-63.147 178.347-178.347 0-17.493-14.507-32-32-32s-32 14.507-32 32c0 80.213-34.133 114.347-114.347 114.347h-194.987c-80.213 0-114.347-34.133-114.347-114.347v-304.64c0-80.213 34.133-114.347 114.347-114.347h109.653c17.493 0 32-14.507 32-32s-14.507-32-32-32zM792.333-10.667h-194.987c-114.773 0-178.346 63.147-178.346 178.347v304.64c0 114.773 63.146 178.347 178.346 178.347h194.987c114.773 0 178.347-63.147 178.347-178.347v-304.64c0-115.2-63.147-178.347-178.347-178.347zM597.346 586.667c-80.213 0-114.347-34.133-114.347-114.347v-304.64c0-80.213 34.133-114.347 114.347-114.347h194.987c80.213 0 114.347 34.133 114.347 114.347v304.64c0 80.213-34.133 114.347-114.347 114.347h-194.987zM773.542 288h-138.667c-17.493 0-32 14.507-32 32s14.507 32 32 32h138.667c17.493 0 32-14.507 32-32s-14.507-32-32-32zM704 218.458c-17.493 0-32 14.507-32 32v138.667c0 17.493 14.507 32 32 32s32-14.507 32-32v-138.667c0-17.493-14.507-32-32-32z" />
<glyph unicode="&#xe911;" glyph-name="airdrop" d="M511.979 373.773c-33.28 0-64.853 12.796-89.175 36.689-31.147 31.147-43.52 75.947-33.28 119.893 10.667 44.802 46.508 80.642 91.308 91.309 43.52 10.667 88.32-1.708 119.893-33.281s43.52-75.948 33.28-119.894c-10.667-44.8-46.507-80.636-91.307-91.302-10.24-2.133-20.48-3.413-30.72-3.413zM511.979 561.503c-5.12 0-10.667-0.853-15.787-2.133-21.333-5.12-38.827-22.612-43.947-43.944-5.547-22.187 0.427-43.951 16.213-59.311 15.787-15.787 37.12-21.333 59.733-16.213 21.333 5.12 38.827 22.618 43.947 43.951 5.547 22.187-0.427 43.942-16.213 59.303-11.947 11.947-27.307 18.347-43.947 18.347zM256.852 193.28c-7.68 0-15.787 2.987-21.76 8.533-82.773 76.8-130.133 185.173-130.133 297.813 0 224.428 182.613 407.040 407.042 407.040 224.427 0 407.036-182.612 407.036-407.040 0-113.493-45.649-218.453-128.422-296.533-12.8-11.947-33.28-11.52-45.227 1.28s-11.52 33.28 1.28 45.227c69.973 65.707 108.369 154.027 108.369 249.6 0 189.014-154.022 343.040-343.036 343.040s-343.042-154.026-343.042-343.040c0-96.427 38.826-185.173 109.653-250.88 12.8-11.947 13.654-32.427 1.707-45.227-6.4-6.4-14.933-9.813-23.467-9.813zM682.645 307.2c-7.68 0-15.787 2.987-21.76 8.533-12.8 11.947-13.653 32.427-1.28 45.227 35.413 37.547 55.040 87.040 55.040 138.24 0 111.785-90.88 202.237-202.24 202.237s-202.239-90.88-202.239-202.237c0-51.627 19.626-100.693 55.040-138.24 11.947-12.8 11.52-33.28-1.28-45.227s-33.28-11.524-45.227 1.276c-46.507 49.493-72.533 114.351-72.533 182.191 0 146.771 119.466 266.237 266.239 266.237s266.24-119.466 266.24-266.237c0-67.84-25.6-132.698-72.533-182.191-6.4-6.4-14.933-9.809-23.467-9.809zM573.427-10.671h-122.453c-48.64 0-91.734 27.307-112.641 70.827s-15.36 94.293 14.933 132.267l61.44 76.373c23.894 29.867 59.307 46.933 97.707 46.933s73.813-17.067 97.707-46.933l61.44-76.373c30.293-37.973 36.267-88.747 14.933-132.267-21.76-43.52-64.853-70.827-113.067-70.827zM464.201 229.116l-61.44-76.373c-14.933-18.773-17.92-43.093-7.253-64.427 10.24-21.76 31.146-34.56 55.040-34.56h122.453c23.893 0 44.8 12.8 55.040 34.56s7.68 45.653-7.253 64.427l-61.44 76.373c-23.040 29.013-71.68 29.013-95.147 0z" />
<glyph unicode="&#xe912;" glyph-name="airplane-square" d="M616.939 113.916c-9.813 0-19.627 2.133-28.587 6.827-2.133 1.28-4.267 2.56-5.973 4.267l-71.253 60.587-69.973-60.587c-2.133-1.707-4.267-2.987-6.4-4.267-16.639-8.107-35.412-8.96-52.052-1.707-17.067 7.253-29.867 21.333-35.84 38.827l-13.653 40.96c-7.253 21.333-0.853 48.213 14.933 64.427l71.253 69.973-0.427 61.867-128.427-55.040c-21.333-8.96-43.52-8.107-60.587 3.413-16.64 10.667-26.453 30.72-26.453 53.76v39.68c0 33.28 23.040 68.693 53.76 81.92l161.707 69.546v81.493c0 41.813 27.732 87.040 64.852 104.96 18.347 8.96 39.253 8.96 57.6 0 37.12-19.2 64.853-64.427 64.853-104.96v-81.493l161.707-69.546c30.72-12.8 53.76-48.213 53.76-81.92v-39.68c0-23.040-9.813-43.093-27.307-54.187s-39.253-12.373-60.587-3.413l-128 55.040v-62.72l69.547-69.547c15.787-15.787 22.187-43.093 14.933-64.427l-13.653-40.533c-5.973-17.493-18.773-31.573-35.84-38.4-7.68-3.413-15.787-5.12-23.893-5.12zM511.979 248.742c14.507 0 28.587-4.693 40.107-13.653l66.133-56.32 11.52 39.68-69.547 69.12c-11.093 10.667-18.347 28.587-18.347 44.373v78.933c0 19.2 8.107 35.84 22.613 45.653s33.28 11.093 51.2 3.413l141.653-60.587 0.427 37.547c0 8.107-7.68 20.053-14.933 23.040l-168.533 72.533c-18.347 7.679-32 28.159-32 49.066v88.32c0 16.64-14.507 40.107-29.44 47.787-15.36-7.68-29.867-30.72-29.867-47.787v-88.32c0-20.053-13.227-40.96-32-49.066l-168.105-72.533c-7.253-2.987-15.36-15.36-15.36-23.040v-37.547l141.227 60.16c17.493 7.68 35.839 6.827 50.772-2.987s23.467-26.453 23.467-46.080v-78.933c0-15.36-7.253-33.28-18.347-44.373l-71.679-70.4 13.653-37.547 64.425 54.613c11.947 9.813 26.453 14.933 40.96 14.933zM599.445 591.355l0.427-0.427c0 0.427-0.427 0.427-0.427 0.427zM640-10.667h-256c-231.68 0-330.667 98.987-330.667 330.667v256c0 231.68 98.987 330.667 330.667 330.667h256c231.68 0 330.667-98.987 330.667-330.667v-256c0-231.68-98.987-330.667-330.667-330.667zM384 842.667c-196.693 0-266.667-69.973-266.667-266.667v-256c0-196.693 69.973-266.667 266.667-266.667h256c196.693 0 266.667 69.973 266.667 266.667v256c0 196.693-69.973 266.667-266.667 266.667h-256z" />
<glyph unicode="&#xe913;" glyph-name="airplane" d="M366.090-2.146c-9.387 0-19.2 1.707-28.16 5.547-20.053 8.533-35.413 25.173-42.24 46.080l-18.773 56.32c-8.533 25.6-0.853 57.6 17.92 76.8l96.853 97.28c1.28 1.28 2.987 5.973 2.987 8.107v105.387l-194.56-84.053c-26.027-11.093-52.48-9.813-72.533 3.413s-32 37.12-32 64.853v55.040c0 41.813 29.867 86.613 67.84 101.546l230.827 99.84v121.173c0 51.627 36.265 110.933 82.345 134.827 22.187 11.093 47.787 11.093 69.547 0 46.507-23.893 82.773-82.773 82.773-134.4v-121.173l232.107-99.84c37.973-16.213 66.987-59.733 66.987-101.973v-55.040c0-28.16-11.52-51.627-32-64.853s-46.507-14.507-72.533-3.84l-194.56 84.053v-105.387c0-1.707 1.707-5.973 2.987-7.253l97.28-97.707c18.773-18.773 26.453-51.627 17.92-76.8l-18.773-56.32c-7.253-20.907-22.613-37.547-43.093-45.653-20.053-8.107-42.24-7.253-61.44 2.133-2.133 1.28-4.267 2.56-6.4 4.267l-99.413 83.627c-3.413 2.987-10.24 2.56-13.227 0l-99.412-83.627c-1.707-1.707-3.84-2.987-5.973-3.84-10.24-5.973-21.76-8.533-33.28-8.533zM407.904 463.347c9.813 0 19.198-2.56 27.305-8.107 14.933-9.813 23.467-26.453 23.467-46.080v-121.6c0-18.347-8.96-40.107-21.76-52.907l-96.852-97.28c-1.707-2.133-3.413-8.533-2.56-11.093l18.773-56.747c1.28-4.267 4.267-5.973 5.973-6.827 1.28-0.427 3.413-1.28 5.973-0.427l95.572 80.64c26.88 23.040 69.12 23.040 96 0l95.147-80.213c2.987-0.427 5.12 0 6.4 0.427 1.707 0.853 5.12 2.56 6.4 6.827l18.773 56.32c0.853 2.987-0.853 9.387-2.56 11.093l-96.853 97.28c-12.8 11.947-22.187 34.133-22.187 52.907v121.6c0 19.2 8.107 35.84 22.613 45.653s33.28 11.093 51.2 3.413l209.92-90.453c6.4-2.56 10.667-2.56 11.947-1.707s2.987 4.693 2.987 11.52v55.040c0 16.213-13.653 37.12-28.16 43.093l-238.080 102.826c-18.773 8.107-32 28.587-32 49.067v128c0 28.16-22.187 64.427-47.787 77.227-3.413 1.707-7.68 1.707-11.52 0-24.747-12.8-47.36-49.92-47.36-77.653v-128c0-20.053-13.227-40.96-32-49.067l-238.079-102.826c-14.933-5.973-28.587-26.88-28.587-42.667v-55.040c0-6.827 1.707-10.667 2.987-11.52s5.547-0.853 11.947 1.707l209.493 90.453c7.68 3.413 15.787 5.12 23.467 5.12z" />
<glyph unicode="&#xe914;" glyph-name="airpod" d="M645.116-10.667h-266.241c-171.947 0-274.773 33.707-293.547 206.507-3.413 24.747-5.12 54.187-5.12 92.16v320c0 36.693 1.707 66.987 5.12 92.587 19.627 173.227 118.187 206.080 293.973 206.080h266.668c175.787 0 274.773-32.853 293.547-206.933 4.267-28.587 5.12-61.013 5.12-91.733v-320c0-37.12-1.707-66.56-5.12-93.013-19.627-172.8-118.613-205.653-294.4-205.653zM378.875 842.667c-181.333 0-218.027-39.253-230.4-149.76-3.413-23.467-4.693-51.2-4.693-84.907v-320c0-34.987 1.707-61.44 4.693-84.053 12.373-111.36 48.64-150.613 230.4-150.613h266.241c181.333 0 218.027 39.253 230.4 149.333 2.987 23.467 4.693 51.2 4.693 85.333v320c0 28.16-0.427 58.027-4.267 83.627-12.373 111.787-48.64 151.040-230.4 151.040h-266.668zM905.809 547.417h-174.933c-17.493 0-32 14.507-32 32s14.507 32 32 32h174.933c17.493 0 32-14.507 32-32s-14.507-32-32-32zM293.1 547.417h-174.933c-17.493 0-32 14.507-32 32s14.507 32 32 32h174.933c17.493 0 32-14.507 32-32s-14.507-32-32-32zM643.418 459.942h-262.826c-32 0-62.72 12.8-84.907 35.84-22.187 21.333-34.56 51.626-34.56 83.626 0 65.707 53.76 119.467 119.467 119.467h262.399c32 0 62.72-13.227 84.907-35.84 22.187-21.76 34.987-51.627 34.987-83.627 0-65.706-53.76-119.466-119.467-119.466zM380.592 634.875c-30.72 0-55.467-24.747-55.467-55.467 0-14.933 5.547-28.587 15.787-38.4 10.667-11.092 24.747-17.066 39.68-17.066h262.826c30.72 0 55.467 24.746 55.467 55.466 0 14.507-5.973 28.16-16.213 38.4-10.667 11.093-24.747 17.067-39.68 17.067h-262.399z" />
<glyph unicode="&#xe915;" glyph-name="airpods" d="M367.37 117.325c-62.293 0-112.639 50.347-112.639 112.64v290.56h-8.534c-106.667 0-193.28 86.611-193.28 193.277s86.613 193.281 193.28 193.281h80.641c84.48 0 152.745-68.694 152.745-152.748v-523.945c0.427-62.72-49.92-113.067-112.212-113.067zM246.624 842.656c-71.253 0-129.28-58.028-129.28-129.281s58.027-129.279 129.28-129.279h40.534c17.493 0 32-14.507 32-32v-322.558c0-26.88 21.759-48.644 48.639-48.644s48.64 21.764 48.64 48.644v523.944c0 49.067-39.68 88.748-88.747 88.748h-81.067v0.427zM246.607 641.279c-39.68 0-72.107 32.425-72.107 72.531s32.427 72.107 72.107 72.107c17.493 0 32-14.507 32-32s-14.507-32-32-32c-4.693 0-8.107-3.84-8.107-8.107s3.84-8.531 8.107-8.531c17.493 0 32-14.507 32-32s-14.507-32-32-32zM656.64 117.333c-62.293 0-112.64 50.347-112.64 112.64v523.946c0 84.48 68.693 152.748 152.747 152.748h80.64c106.667 0 193.28-86.615 193.28-193.281s-86.613-193.279-193.28-193.279h-8.533v-290.56c0.427-61.867-50.347-112.213-112.213-112.213zM696.747 842.667c-49.067 0-88.747-39.681-88.747-88.748v-523.946c0-26.88 21.76-48.64 48.64-48.64s48.64 21.76 48.64 48.64v322.56c0 17.493 14.507 32 32 32h40.533c71.253 0 129.28 58.025 129.28 129.279s-58.027 129.281-129.28 129.281h-81.067v-0.427zM777.374 641.279c-17.493 0-32 14.507-32 32s14.507 32 32 32c4.693 0 8.107 3.838 8.107 8.531s-3.84 8.107-8.107 8.107c-17.493 0-32 14.507-32 32s14.507 32 32 32c39.68 0 72.107-32.427 72.107-72.107s-32-72.531-72.107-72.531zM362.667-10.667c-17.493 0-32 14.507-32 32v128c0 17.493 14.507 32 32 32s32-14.507 32-32v-128c0-17.493-14.507-32-32-32zM661.333-10.667c-17.493 0-32 14.507-32 32v128c0 17.493 14.507 32 32 32s32-14.507 32-32v-128c0-17.493-14.507-32-32-32z" />
<glyph unicode="&#xe916;" glyph-name="alarm" d="M938.667-10.667h-853.333c-17.493 0-32 14.507-32 32s14.507 32 32 32h853.333c17.493 0 32-14.507 32-32s-14.507-32-32-32zM896-10.667h-768c-17.493 0-32 14.507-32 32v298.667c0 229.547 186.453 416 416 416s416-186.453 416-416v-298.667c0-17.493-14.507-32-32-32zM160 53.333h704v266.667c0 194.133-157.867 352-352 352s-352-157.867-352-352v-266.667zM512 800c-17.493 0-32 14.507-32 32v42.667c0 17.493 14.507 32 32 32s32-14.507 32-32v-42.667c0-17.493-14.507-32-32-32zM213.31 714.669c-8.107 0-16.213 2.987-22.613 9.387l-42.667 42.667c-12.373 12.373-12.373 32.853 0 45.227s32.853 12.373 45.227 0l42.667-42.667c12.373-12.373 12.373-32.853 0-45.227-6.4-6.4-14.507-9.387-22.613-9.387zM810.645 714.669c-8.107 0-16.213 2.987-22.613 9.387-12.373 12.373-12.373 32.853 0 45.227l42.667 42.667c12.373 12.373 32.853 12.373 45.227 0s12.373-32.853 0-45.227l-42.667-42.667c-6.4-6.4-14.507-9.387-22.613-9.387z" />
<glyph unicode="&#xe917;" glyph-name="align-bottom" d="M726.613 117.329h-44.373c-85.76 0-127.147 39.68-127.147 121.6v503.467c0 17.493 14.507 32 32 32s32-14.507 32-32v-503.467c0-43.093 8.96-57.6 63.147-57.6h44.373c54.187 0 63.147 14.507 63.147 57.6v503.467c0 17.493 14.507 32 32 32s32-14.507 32-32v-503.467c0-81.92-41.387-121.6-127.147-121.6zM363.947 330.662h-44.373c-85.76 0-127.147 39.68-127.147 121.6v290.133c0 17.493 14.507 32 32 32s32-14.507 32-32v-290.133c0-43.093 8.96-57.6 63.147-57.6h44.373c54.187 0 63.146 14.507 63.146 57.6v290.133c0 17.493 14.507 32 32 32s32-14.507 32-32v-290.133c0-81.92-41.387-121.6-127.146-121.6zM938.667 714.667h-853.333c-17.92 0-32 14.507-32 32s14.080 32 32 32h853.333c17.493 0 32-14.507 32-32s-14.080-32-32-32z" />
<glyph unicode="&#xe918;" glyph-name="align-horizontally" d="M342.187 96h-44.373c-85.76 0-127.147 39.68-127.147 121.6v460.8c0 81.92 41.813 121.6 127.147 121.6h44.373c85.333 0 127.147-39.68 127.147-121.6v-460.8c0-81.92-41.813-121.6-127.147-121.6zM297.813 736c-54.187 0-63.147-14.507-63.147-57.6v-460.8c0-43.093 8.96-57.6 63.147-57.6h44.373c54.187 0 63.147 14.507 63.147 57.6v460.8c0 43.093-8.96 57.6-63.147 57.6h-44.373zM704.853 181.333h-44.373c-85.76 0-127.147 39.68-127.147 121.6v290.133c0 81.92 41.813 121.6 127.147 121.6h44.373c85.76 0 127.147-39.68 127.147-121.6v-290.133c0-81.92-41.813-121.6-127.147-121.6zM660.48 650.667c-54.187 0-63.147-14.507-63.147-57.6v-290.133c0-43.093 8.96-57.6 63.147-57.6h44.373c54.187 0 63.147 14.507 63.147 57.6v290.133c0 43.093-8.96 57.6-63.147 57.6h-44.373zM187.733 416h-102.4c-17.493 0-32 14.507-32 32s14.080 32 32 32h102.4c17.493 0 32-14.507 32-32s-14.080-32-32-32zM554.667 416h-85.333c-17.493 0-32 14.507-32 32s14.507 32 32 32h85.333c17.493 0 32-14.507 32-32s-14.507-32-32-32zM938.667 416h-115.2c-17.493 0-32 14.507-32 32s14.507 32 32 32h115.2c17.493 0 32-14.507 32-32s-14.080-32-32-32z" />
<glyph unicode="&#xe919;" glyph-name="align-left" d="M721.050 106.667h-503.466c-17.493 0-32 14.507-32 32s14.507 32 32 32h503.466c43.093 0 57.6 8.96 57.6 63.147v44.373c0 54.187-14.507 63.147-57.6 63.147h-503.466c-17.493 0-32 14.507-32 32s14.507 32 32 32h503.466c81.92 0 121.6-41.813 121.6-127.147v-44.373c0-85.333-39.68-127.147-121.6-127.147zM507.716 469.333h-290.133c-17.493 0-32 14.507-32 32s14.507 32 32 32h290.133c43.093 0 57.6 8.96 57.6 63.147v44.373c0 54.187-14.507 63.147-57.6 63.147h-290.133c-17.493 0-32 14.507-32 32s14.507 32 32 32h290.133c81.92 0 121.6-41.813 121.6-127.147v-44.373c0-85.333-39.68-127.147-121.6-127.147zM213.333-10.249c-17.493 0-32 14.507-32 32v853.332c0 17.493 14.507 32 32 32s32-14.507 32-32v-853.332c0-17.493-14.507-32-32-32z" />
<glyph unicode="&#xe91a;" glyph-name="align-right" d="M806.4 106.667h-503.467c-81.92 0-121.6 41.813-121.6 127.147v44.373c0 85.333 39.68 127.147 121.6 127.147h503.467c17.493 0 32-14.507 32-32s-14.507-32-32-32h-503.467c-43.093 0-57.6-8.96-57.6-63.147v-44.373c0-54.187 14.507-63.147 57.6-63.147h503.467c17.493 0 32-14.507 32-32s-14.507-32-32-32zM806.4 469.333h-290.133c-81.92 0-121.6 41.813-121.6 127.147v44.373c0 85.76 39.68 127.147 121.6 127.147h290.133c17.493 0 32-14.507 32-32s-14.507-32-32-32h-290.133c-43.093 0-57.6-8.96-57.6-63.147v-44.373c0-54.187 14.507-63.147 57.6-63.147h290.133c17.493 0 32-14.507 32-32s-14.507-32-32-32zM810.667-10.249c-17.493 0-32 14.507-32 32v853.332c0 17.493 14.507 32 32 32s32-14.507 32-32v-853.332c0-17.493-14.507-32-32-32z" />
<glyph unicode="&#xe91b;" glyph-name="align-vertically" d="M742.4 106.667h-460.8c-81.92 0-121.6 41.813-121.6 127.147v44.373c0 85.333 39.68 127.147 121.6 127.147h460.8c81.92 0 121.6-41.813 121.6-127.147v-44.373c0-85.333-39.68-127.147-121.6-127.147zM281.6 341.333c-43.093 0-57.6-8.96-57.6-63.147v-44.373c0-54.187 14.507-63.147 57.6-63.147h460.8c43.093 0 57.6 8.96 57.6 63.147v44.373c0 54.187-14.507 63.147-57.6 63.147h-460.8zM657.067 469.333h-290.133c-81.92 0-121.6 41.813-121.6 127.147v44.373c0 85.76 39.68 127.147 121.6 127.147h290.133c81.92 0 121.6-41.813 121.6-127.147v-44.373c0-85.333-39.68-127.147-121.6-127.147zM366.933 704c-43.093 0-57.6-8.96-57.6-63.147v-44.373c0-54.187 14.507-63.147 57.6-63.147h290.133c43.093 0 57.6 8.96 57.6 63.147v44.373c0 54.187-14.507 63.147-57.6 63.147h-290.133zM512-10.671c-17.493 0-32 14.507-32 32v102.4c0 17.493 14.507 32 32 32s32-14.507 32-32v-102.4c0-17.493-14.507-32-32-32zM512 373.333c-17.493 0-32 14.507-32 32v85.333c0 17.493 14.507 32 32 32s32-14.507 32-32v-85.333c0-17.493-14.507-32-32-32zM512 727.893c-17.493 0-32 14.507-32 32v114.773c0 17.493 14.507 32 32 32s32-14.080 32-32v-114.773c0-17.92-14.507-32-32-32z" />
<glyph unicode="&#xe91c;" glyph-name="All" d="M187.333 733.008c0 22.007 17.673 39.68 39.68 39.68h143.36c22.007 0 39.68-17.673 39.68-39.68v-143.359c0-22.007-17.673-39.68-39.68-39.68h-143.36c-22.007 0-39.68 17.673-39.68 39.68v143.359zM227.014 836.687c-57.353 0-103.68-46.326-103.68-103.68v-143.359c0-57.352 46.328-103.68 103.68-103.68h143.36c57.352 0 103.679 46.327 103.679 103.68v143.359c0 57.353-46.327 103.68-103.679 103.68h-143.36zM613.999 733.008c0 22.007 17.673 39.68 39.68 39.68h143.36c22.007 0 39.68-17.673 39.68-39.68v-143.359c0-22.007-17.673-39.68-39.68-39.68h-143.36c-22.007 0-39.68 17.673-39.68 39.68v143.359zM653.679 836.687c-57.353 0-103.68-46.326-103.68-103.68v-143.359c0-57.352 46.327-103.68 103.68-103.68h143.36c57.353 0 103.68 46.327 103.68 103.68v143.359c0 57.353-46.327 103.68-103.68 103.68h-143.36zM227.014 346.022c-22.007 0-39.68-17.677-39.68-39.68v-143.36c0-22.007 17.673-39.68 39.68-39.68h143.36c22.007 0 39.68 17.673 39.68 39.68v143.36c0 22.003-17.673 39.68-39.68 39.68h-143.36zM123.333 306.342c0 57.353 46.328 103.68 103.68 103.68h143.36c57.352 0 103.679-46.327 103.679-103.68v-143.36c0-57.353-46.327-103.68-103.679-103.68h-143.36c-57.353 0-103.68 46.327-103.68 103.68v143.36zM613.999 306.342c0 22.003 17.673 39.68 39.68 39.68h143.36c22.007 0 39.68-17.677 39.68-39.68v-143.36c0-22.007-17.673-39.68-39.68-39.68h-143.36c-22.007 0-39.68 17.673-39.68 39.68v143.36zM653.679 410.022c-57.353 0-103.68-46.327-103.68-103.68v-143.36c0-57.353 46.327-103.68 103.68-103.68h143.36c57.353 0 103.68 46.327 103.68 103.68v143.36c0 57.353-46.327 103.68-103.68 103.68h-143.36z" />
<glyph unicode="&#xe91d;" glyph-name="android" d="M426.667-10.667c-40.96 0-74.667 33.707-74.667 74.667v128c0 17.493 14.507 32 32 32h85.333c17.493 0 32-14.507 32-32v-128c0-40.96-33.707-74.667-74.667-74.667zM416 160v-96c0-11.52 21.333-11.52 21.333 0v96h-21.333zM597.333-10.667c-40.96 0-74.667 33.707-74.667 74.667v128c0 17.493 14.507 32 32 32h85.333c17.493 0 32-14.507 32-32v-128c0-40.96-33.707-74.667-74.667-74.667zM586.667 160v-96c0-11.52 21.333-11.52 21.333 0v96h-21.333zM640 160h-256c-64.853 0-117.333 52.48-117.333 117.333v213.333c0 64.853 52.48 117.333 117.333 117.333h256c64.853 0 117.333-52.48 117.333-117.333v-213.333c0-64.853-52.48-117.333-117.333-117.333zM384 544c-29.44 0-53.333-23.893-53.333-53.333v-213.333c0-29.44 23.893-53.333 53.333-53.333h256c29.44 0 53.333 23.893 53.333 53.333v213.333c0 29.44-23.893 53.333-53.333 53.333h-256zM170.667 245.333c-40.96 0-74.667 33.707-74.667 74.667v170.667c0 40.96 33.707 74.667 74.667 74.667s74.667-33.707 74.667-74.667v-170.667c0-40.96-33.707-74.667-74.667-74.667zM170.667 501.333c-5.973 0-10.667-4.693-10.667-10.667v-170.667c0-11.947 21.333-11.947 21.333 0v170.667c0 5.973-4.693 10.667-10.667 10.667zM853.333 245.333c-40.96 0-74.667 33.707-74.667 74.667v170.667c0 40.96 33.707 74.667 74.667 74.667s74.667-33.707 74.667-74.667v-170.667c0-40.96-33.707-74.667-74.667-74.667zM853.333 501.333c-5.973 0-10.667-4.693-10.667-10.667v-170.667c0-11.947 21.333-11.947 21.333 0v170.667c0 5.973-4.693 10.667-10.667 10.667zM554.667 160h-85.333c-17.493 0-32 14.507-32 32s14.507 32 32 32h85.333c17.493 0 32-14.507 32-32s-14.507-32-32-32zM614.4 629.337h-204.801c-55.467 0-100.266 44.8-100.266 100.267 0 111.787 90.88 202.667 202.667 202.667s202.667-90.88 202.667-202.667c0-55.467-44.8-100.267-100.267-100.267zM512 868.271c-76.373 0-138.667-62.293-138.667-138.667 0-20.053 16.212-36.267 36.266-36.267h204.801c20.053 0 36.267 16.214 36.267 36.267 0 76.373-62.293 138.667-138.667 138.667z" />
<glyph unicode="&#xe91e;" glyph-name="ankr-ankr" d="M891.302 510.729c-17.493 0-32 14.507-32 31.999v122.453l-347.307 173.654-347.308-173.654v-122.453c0-17.492-14.507-31.999-32-31.999s-32 14.507-32 31.999v142.080c0 11.947 6.829 23.040 17.922 28.586l379.306 189.44c8.96 4.693 19.627 4.693 28.587 0l379.307-189.44c10.667-5.547 17.92-16.64 17.92-28.586v-142.080c-0.427-17.492-14.933-31.999-32.427-31.999zM511.996-10.667c-5.12 0-9.813 1.28-14.080 3.413l-379.306 189.44c-10.667 5.547-17.922 16.64-17.922 28.587v142.080c0 17.493 14.507 32 32 32s32-14.507 32-32v-122.453l347.308-173.653 347.307 173.653v122.453c0 17.493 14.507 32 32 32s32-14.507 32-32v-142.080c0-11.947-6.831-23.040-17.924-28.587l-379.302-189.44c-4.267-2.133-8.96-3.413-14.080-3.413zM512-10.662c-17.493 0-32 14.507-32 32v237.227c0 17.493 14.507 32 32 32s32-14.507 32-32v-237.227c0-17.493-14.507-32-32-32zM512.004 226.556c-122.028 0-221.442 99.413-221.442 221.44s99.413 221.442 221.442 221.442c122.027 0 221.44-99.413 221.44-221.442 0-122.027-99.413-221.44-221.44-221.44zM512.004 605.437c-87.042 0-157.442-70.827-157.442-157.442 0-86.613 70.827-157.44 157.442-157.44 86.613 0 157.44 70.827 157.44 157.44 0 86.615-70.4 157.442-157.44 157.442z" />
<glyph unicode="&#xe91f;" glyph-name="apple" d="M393.815-10.671c-0.427 0-0.853 0-1.707 0-71.68 0.427-122.88 64.853-159.147 120.747-92.587 142.080-111.36 320.853-44.373 424.535 44.8 69.547 117.333 112.641 189.013 112.641 37.12 0 66.135-10.241 91.735-19.628 20.48-7.253 37.969-13.652 56.316-13.652 16.213 0 30.293 5.546 48.213 12.372 24.747 9.387 55.040 20.908 98.987 20.908 63.147 0 128.004-33.707 173.231-90.88 5.973-7.253 8.107-17.067 6.4-26.028-1.707-9.387-7.68-17.067-15.787-21.76-48.213-26.453-74.671-74.667-70.831-129.28 3.84-55.467 37.978-102.4 89.178-121.6 8.107-2.987 14.933-9.387 18.347-17.493s3.409-17.493-0.431-25.173c-18.773-41.813-28.156-61.013-52.476-98.56-40.533-62.293-91.733-126.293-161.707-127.147-30.293 0-50.773 8.96-68.693 17.493-17.92 8.107-35.418 14.507-63.151 15.36-29.867 0-45.653-7.253-64-15.36-18.773-8.533-39.251-17.493-69.118-17.493zM377.602 583.251c-50.347 0-101.973-32-135.253-83.202-45.227-69.973-44.8-218.027 44.373-354.987 27.733-42.667 64.853-91.307 106.24-91.733 15.36 0.427 26.88 4.693 42.665 11.52 20.907 9.387 46.933 20.907 90.027 21.333 42.24 0.853 69.551-11.52 90.458-21.333 15.36-7.253 25.6-11.947 41.387-11.52 40.107 0.427 78.929 52.48 108.796 97.707 15.787 24.32 24.747 39.68 34.56 61.44-57.173 33.707-94.716 93.013-99.409 162.133-4.693 65.28 21.756 126.293 70.396 166.828-29.867 26.453-65.276 41.387-99.409 41.387-32 0-53.333-8.108-75.947-16.641-21.333-8.107-43.524-16.639-71.258-16.639-29.44 0-53.76 8.96-77.653 17.066-22.611 8.96-44.371 16.641-69.971 16.641zM504.32 655.784c-1.28 0-2.982 0-4.262 0-14.933 0.427-27.733 11.52-30.293 26.453-8.96 48.213 8.102 103.681 45.222 148.908 34.133 41.387 90.458 72.106 140.378 75.52 17.493 0.853 31.573-10.668 33.707-27.308 7.253-49.92-8.533-104.533-43.947-150.186-34.56-44.8-89.604-73.387-140.804-73.387zM625.071 834.13c-23.040-9.387-45.653-25.173-60.587-43.52-14.080-17.067-27.311-40.96-31.578-65.707 23.040 7.68 46.084 23.040 61.871 43.52 8.533 10.667 24.747 35.412 30.293 65.706z" />
<glyph unicode="&#xe920;" glyph-name="aquarius" d="M512 245.333c-17.493 0-32 14.507-32 32s14.507 32 32 32c147.2 0 266.667 119.467 266.667 266.667s-119.467 266.667-266.667 266.667c-147.2 0-266.667-119.467-266.667-266.667 0-17.493-14.507-32-32-32s-32 14.507-32 32c0 182.187 148.48 330.667 330.667 330.667s330.667-148.48 330.667-330.667c0-182.187-148.48-330.667-330.667-330.667zM512-10.667c-17.493 0-32 14.507-32 32v256c0 17.493 14.507 32 32 32s32-14.507 32-32v-256c0-17.493-14.507-32-32-32zM640 117.333h-256c-17.493 0-32 14.507-32 32s14.507 32 32 32h256c17.493 0 32-14.507 32-32s-14.507-32-32-32z" />
<glyph unicode="&#xe921;" glyph-name="archive-2" d="M704-10.675h-384c-140.8 0-160 76.8-160 160v374.613c0 17.493 14.507 32 32 32s32-14.507 32-32v-374.613c0-74.24 12.8-96 96-96h384c83.2 0 96 21.76 96 96v374.613c0 17.493 14.507 32 32 32s32-14.507 32-32v-374.613c0-83.2-19.2-160-160-160zM810.667 501.333h-597.333c-103.253 0-160 56.747-160 160v85.333c0 103.253 56.747 160 160 160h597.333c103.253 0 160-56.747 160-160v-85.333c0-103.253-56.747-160-160-160zM213.333 842.667c-67.413 0-96-28.587-96-96v-85.333c0-67.413 28.587-96 96-96h597.333c67.413 0 96 28.587 96 96v85.333c0 67.413-28.587 96-96 96h-597.333zM589.641 330.667h-155.307c-17.494 0-32 14.507-32 32s14.507 32 32 32h155.307c17.493 0 32-14.507 32-32s-14.507-32-32-32z" />
<glyph unicode="&#xe922;" glyph-name="archive-1" d="M640-10.667h-256c-231.68 0-330.667 98.987-330.667 330.667v256c0 231.68 98.987 330.667 330.667 330.667h256c231.68 0 330.667-98.987 330.667-330.667v-256c0-231.68-98.987-330.667-330.667-330.667zM384 842.667c-196.693 0-266.667-69.973-266.667-266.667v-256c0-196.693 69.973-266.667 266.667-266.667h256c196.693 0 266.667 69.973 266.667 266.667v256c0 196.693-69.973 266.667-266.667 266.667h-256zM768 309.333c-17.493 0-32 14.507-32 32 0 29.44-23.893 53.333-53.333 53.333h-341.333c-29.44 0-53.333-23.893-53.333-53.333 0-17.493-14.507-32-32-32s-32 14.507-32 32v288c0 64.853 52.48 117.333 117.333 117.333h341.333c64.853 0 117.333-52.48 117.333-117.333v-288c0-17.493-14.507-32-32-32zM341.333 458.667h341.333c19.2 0 37.547-4.693 53.333-12.8v183.467c0 29.44-23.893 53.333-53.333 53.333h-341.333c-29.44 0-53.333-23.893-53.333-53.333v-183.467c15.787 8.107 34.133 12.8 53.333 12.8zM810.667 256h-42.667c-17.493 0-32 14.507-32 32s14.507 32 32 32h42.667c17.493 0 32-14.507 32-32s-14.507-32-32-32zM256 256h-42.667c-17.493 0-32 14.507-32 32s14.507 32 32 32h42.667c17.493 0 32-14.507 32-32s-14.507-32-32-32zM768 330.667c-17.493 0-32 14.507-32 32v128c0 29.44-23.893 53.333-53.333 53.333h-341.333c-29.44 0-53.333-23.893-53.333-53.333v-128c0-17.493-14.507-32-32-32s-32 14.507-32 32v128c0 64.853 52.48 117.333 117.333 117.333h341.333c64.853 0 117.333-52.48 117.333-117.333v-128c0-17.493-14.507-32-32-32zM512 149.333c-65.28 0-120.319 45.653-134.825 106.667h-121.175c-17.493 0-32 14.507-32 32v53.333c0 64.853 52.48 117.333 117.333 117.333h341.333c64.853 0 117.333-52.48 117.333-117.333v-53.333c0-17.493-14.507-32-32-32h-121.173c-14.507-61.013-69.547-106.667-134.827-106.667zM288 320h117.333c17.493 0 32-14.507 32-32 0-40.96 33.707-74.667 74.667-74.667s74.667 33.707 74.667 74.667c0 17.493 14.507 32 32 32h117.333v21.333c0 29.44-23.893 53.333-53.333 53.333h-341.333c-29.44 0-53.333-23.893-53.333-53.333v-21.333z" />
<glyph unicode="&#xe923;" glyph-name="archive-add" d="M618.667 473.604h-213.333c-17.493 0-32 14.507-32 32s14.507 32 32 32h213.333c17.493 0 32-14.507 32-32s-14.507-32-32-32zM512 364.373c-17.493 0-32 14.507-32 32v213.335c0 17.493 14.507 32 32 32s32-14.507 32-32v-213.335c0-17.493-14.507-32-32-32zM813.666-10.667c-21.76 0-45.653 6.4-68.693 19.627l-208.213 115.627c-12.373 6.827-36.693 6.827-49.067 0l-208.213-115.627c-42.24-23.467-85.333-26.027-118.187-6.4-32.853 19.2-51.627 58.027-51.627 106.24v601.173c0 108.373 88.32 196.693 196.693 196.693h411.733c108.373 0 196.693-88.32 196.693-196.693v-601.173c0-48.213-18.773-87.040-51.627-106.24-14.933-8.96-32-13.227-49.493-13.227zM512.013 193.707c20.053 0 39.68-4.267 55.467-13.227l208.213-115.627c21.76-12.373 41.813-14.933 54.613-7.253s20.053 26.027 20.053 51.2v601.173c0 72.96-59.733 132.693-132.693 132.693h-411.306c-72.96 0-132.693-59.733-132.693-132.693v-601.173c0-25.173 7.253-43.947 20.053-51.2s32.853-5.12 54.613 7.253l208.213 115.627c15.787 8.96 35.413 13.227 55.467 13.227z" />
<glyph unicode="&#xe924;" glyph-name="archive-book" d="M682.667-10.667h-341.333c-155.733 0-245.333 89.6-245.333 245.333v426.667c0 155.733 89.6 245.333 245.333 245.333h341.333c155.733 0 245.333-89.6 245.333-245.333v-426.667c0-155.733-89.6-245.333-245.333-245.333zM341.333 842.667c-122.027 0-181.333-59.307-181.333-181.333v-426.667c0-122.027 59.307-181.333 181.333-181.333h341.333c122.027 0 181.333 59.307 181.333 181.333v426.667c0 122.027-59.307 181.333-181.333 181.333h-341.333zM384 485.973c-7.253 0-14.507 1.28-21.333 4.267-19.627 8.533-32 27.733-32 48.64v335.787c0 17.493 14.507 32 32 32h298.667c17.493 0 32-14.507 32-32v-335.36c0-21.334-12.373-40.534-32-48.64-19.2-8.533-41.813-4.693-57.6 9.813l-91.733 84.054-91.734-84.48c-10.24-9.387-23.039-14.080-36.266-14.080zM512 652.372c12.8 0 26.027-4.692 36.267-14.078l81.067-74.667v279.039h-234.667v-279.039l81.067 74.667c10.24 9.387 23.467 14.078 36.267 14.078zM746.667 330.667h-181.333c-17.493 0-32 14.507-32 32s14.507 32 32 32h181.333c17.493 0 32-14.507 32-32s-14.507-32-32-32zM746.667 160h-362.667c-17.493 0-32 14.507-32 32s14.507 32 32 32h362.667c17.493 0 32-14.507 32-32s-14.507-32-32-32z" />
<glyph unicode="&#xe925;" glyph-name="archive-minus" d="M618.667 473.604h-213.333c-17.493 0-32 14.507-32 32s14.507 32 32 32h213.333c17.493 0 32-14.507 32-32s-14.507-32-32-32zM210.328-10.667c-17.92 0-34.56 4.267-49.493 12.8-32.853 19.2-51.627 58.027-51.627 106.24v601.6c0 108.373 88.32 196.693 196.693 196.693h411.735c108.373 0 196.693-88.32 196.693-196.693v-601.173c0-48.213-18.773-87.040-51.627-106.24s-75.947-17.067-118.187 6.4l-208.213 115.627c-12.373 6.827-36.693 6.827-49.067 0l-208.215-115.627c-23.040-12.8-46.507-19.627-68.693-19.627zM306.328 842.667c-72.96 0-132.693-59.733-132.693-132.693v-601.173c0-25.173 7.253-43.947 20.053-51.2 12.8-7.68 32.853-5.12 54.613 7.253l208.215 115.627c31.573 17.493 79.36 17.493 110.933 0l208.213-115.627c21.76-12.373 41.813-14.933 54.613-7.253s20.053 26.453 20.053 51.2v601.173c0 72.96-59.733 132.693-132.693 132.693h-411.308z" />
<glyph unicode="&#xe926;" glyph-name="archive-slash" d="M85.352-10.662c-8.107 0-16.213 2.987-22.613 9.387-12.373 12.373-12.373 32.853 0 45.227l853.332 853.332c12.373 12.373 32.853 12.373 45.227 0s12.373-32.853 0-45.227l-853.332-853.332c-6.4-6.4-14.507-9.387-22.613-9.387zM805.534-10.667c-23.893 0-49.493 7.253-75.093 21.333l-278.187 173.653c-14.933 9.387-19.627 29.013-10.24 43.947s29.013 19.627 43.947 10.24l276.907-172.8c23.893-13.227 47.787-16.213 63.147-7.253s24.32 31.147 24.32 60.587v469.335c0 17.493 14.507 32 32 32s32-14.507 32-32v-469.335c0-52.48-20.48-94.72-55.893-115.627-15.787-9.387-33.707-14.080-52.907-14.080zM141.667 76.8c-17.493 0-32 14.507-32 32v601.173c0 108.373 88.32 196.693 196.693 196.693h411.733c59.307 0 115.2-26.453 152.747-72.96 11.093-13.653 8.96-33.707-4.693-45.227-13.653-11.093-33.707-8.96-44.8 4.693-25.6 31.573-63.147 49.493-103.253 49.493h-411.733c-72.96 0-132.693-59.733-132.693-132.693v-601.173c0-17.493-14.507-32-32-32z" />
<glyph unicode="&#xe927;" glyph-name="archive-tick" d="M210.328-10.667c-17.92 0-34.56 4.267-49.493 12.8-32.853 19.2-51.627 58.027-51.627 106.24v601.6c0 108.373 88.32 196.693 196.693 196.693h411.735c108.373 0 196.693-88.32 196.693-196.693v-601.173c0-48.213-18.773-87.040-51.627-106.24s-75.947-17.067-118.187 6.4l-208.213 115.627c-12.373 6.827-36.693 6.827-49.067 0l-208.215-115.627c-23.040-12.8-46.507-19.627-68.693-19.627zM306.328 842.667c-72.96 0-132.693-59.733-132.693-132.693v-601.173c0-25.173 7.253-43.947 20.053-51.2s32.853-5.12 54.613 7.253l208.215 115.627c31.573 17.493 79.36 17.493 110.933 0l208.213-115.627c21.76-12.373 41.813-14.933 54.613-7.253s20.053 26.453 20.053 51.2v601.173c0 72.96-59.733 132.693-132.693 132.693h-411.308zM473.186 394.671c-8.107 0-16.213 2.987-22.613 9.387l-64.001 64c-12.373 12.373-12.373 32.853 0 45.227s32.853 12.373 45.228 0l41.387-41.387 148.053 148.052c12.373 12.373 32.853 12.373 45.227 0s12.373-32.853 0-45.227l-170.667-170.665c-6.4-6.4-14.507-9.387-22.613-9.387z" />
<glyph unicode="&#xe928;" glyph-name="archive" d="M512 521.382c-43.52 0-87.040 7.68-128.427 22.615-16.64 5.973-25.173 24.32-19.2 40.96 6.4 16.64 24.747 25.173 41.387 19.2 68.693-24.747 144.213-24.747 212.907 0 16.64 5.973 34.987-2.56 40.96-19.2s-2.56-34.987-19.2-40.96c-41.387-14.935-84.907-22.615-128.427-22.615zM813.666-10.667c-21.76 0-45.653 6.4-68.693 19.627l-208.213 115.627c-12.373 6.827-36.693 6.827-49.067 0l-208.213-115.627c-42.24-23.467-85.333-26.027-118.187-6.4-32.853 19.2-51.627 58.027-51.627 106.24v601.173c0 108.373 88.32 196.693 196.693 196.693h411.733c108.373 0 196.693-88.32 196.693-196.693v-601.173c0-48.213-18.773-87.040-51.627-106.24-14.933-8.96-32-13.227-49.493-13.227zM512.013 193.707c20.053 0 39.68-4.267 55.467-13.227l208.213-115.627c21.76-12.373 41.813-14.933 54.613-7.253s20.053 26.027 20.053 51.2v601.173c0 72.96-59.733 132.693-132.693 132.693h-411.306c-72.96 0-132.693-59.733-132.693-132.693v-601.173c0-25.173 7.253-43.947 20.053-51.2s32.427-5.12 54.613 7.253l208.213 115.627c15.787 8.96 35.413 13.227 55.467 13.227z" />
<glyph unicode="&#xe929;" glyph-name="arrange-circle-2" d="M602.018 208.653c-8.107 0-16.213 2.982-22.613 9.382-12.373 12.373-12.373 32.858 0 45.231l129.707 129.702c12.373 12.373 32.853 12.373 45.227 0s12.373-32.853 0-45.227l-129.707-129.707c-5.973-5.973-14.080-9.382-22.613-9.382zM731.725 338.355h-439.892c-17.493 0-32 14.507-32 32s14.507 32 32 32h439.892c17.493 0 32-14.507 32-32s-14.080-32-32-32zM292.268 493.649c-8.107 0-16.213 2.987-22.613 9.387-12.373 12.373-12.373 32.854 0 45.227l129.706 129.707c12.373 12.373 32.852 12.373 45.226 0s12.373-32.855 0-45.228l-129.705-129.706c-6.4-6.4-14.507-9.387-22.613-9.387zM731.725 493.666h-439.892c-17.493 0-32 14.507-32 32s14.507 32 32 32h439.892c17.493 0 32-14.507 32-32s-14.080-32-32-32zM512-10.667c-253.013 0-458.667 205.653-458.667 458.667s205.653 458.667 458.667 458.667c253.013 0 458.667-205.653 458.667-458.667s-205.653-458.667-458.667-458.667zM512 842.667c-217.6 0-394.667-177.067-394.667-394.667s177.067-394.667 394.667-394.667c217.6 0 394.667 177.067 394.667 394.667s-177.067 394.667-394.667 394.667z" />
<glyph unicode="&#xe92a;" glyph-name="arrange-circle" d="M719.347 506.027c-8.107 0-16.213 2.987-22.613 9.387l-129.702 129.705c-12.373 12.373-12.373 32.853 0 45.227s32.853 12.373 45.227 0l129.707-129.706c12.373-12.373 12.373-32.852 0-45.226-6.4-5.973-14.511-9.387-22.618-9.387zM589.666 196.275c-17.493 0-32 14.507-32 32v439.892c0 17.493 14.507 32 32 32s32-14.507 32-32v-439.892c0-17.92-14.507-32-32-32zM434.351 196.275c-8.107 0-16.214 2.987-22.614 9.387l-129.707 129.707c-12.373 12.373-12.373 32.853 0 45.227s32.855 12.373 45.228 0l129.706-129.707c12.373-12.373 12.373-32.853 0-45.227-5.973-6.4-14.080-9.387-22.613-9.387zM434.334 196.275c-17.494 0-32 14.507-32 32v439.892c0 17.493 14.507 32 32 32s32-14.507 32-32v-439.892c0-17.92-14.080-32-32-32zM512-10.667c-253.013 0-458.667 205.653-458.667 458.667s205.653 458.667 458.667 458.667c253.013 0 458.667-205.653 458.667-458.667s-205.653-458.667-458.667-458.667zM512 842.667c-217.6 0-394.667-177.067-394.667-394.667s177.067-394.667 394.667-394.667c217.6 0 394.667 177.067 394.667 394.667s-177.067 394.667-394.667 394.667z" />
<glyph unicode="&#xe92b;" glyph-name="arrange-square-2" d="M640-10.667h-256c-231.68 0-330.667 98.987-330.667 330.667v256c0 231.68 98.987 330.667 330.667 330.667h256c231.68 0 330.667-98.987 330.667-330.667v-256c0-231.68-98.987-330.667-330.667-330.667zM384 842.667c-196.693 0-266.667-69.973-266.667-266.667v-256c0-196.693 69.973-266.667 266.667-266.667h256c196.693 0 266.667 69.973 266.667 266.667v256c0 196.693-69.973 266.667-266.667 266.667h-256zM434.351 196.275c-8.108 0-16.214 2.987-22.614 9.387l-129.707 129.707c-12.373 12.373-12.373 32.853 0 45.227s32.853 12.373 45.227 0l129.708-129.707c12.373-12.373 12.373-32.853 0-45.227-5.973-6.4-14.080-9.387-22.613-9.387zM434.334 196.262c-17.494 0-32 14.507-32 32v439.467c0 17.493 14.507 32 32 32s32-14.507 32-32v-439.893c0-17.493-14.080-31.573-32-31.573zM719.351 506.027c-8.107 0-16.213 2.987-22.613 9.387l-129.707 129.705c-12.373 12.373-12.373 32.853 0 45.227s32.853 12.373 45.227 0l129.707-129.707c12.373-12.373 12.373-32.852 0-45.225-6.4-5.973-14.507-9.387-22.613-9.387zM589.666 196.262c-17.493 0-32 14.507-32 32v439.467c0 17.493 14.507 32 32 32s32-14.507 32-32v-439.893c0-17.493-14.507-31.573-32-31.573z" />
<glyph unicode="&#xe92c;" glyph-name="arrange-square" d="M640-10.667h-256c-231.68 0-330.667 98.987-330.667 330.667v256c0 231.68 98.987 330.667 330.667 330.667h256c231.68 0 330.667-98.987 330.667-330.667v-256c0-231.68-98.987-330.667-330.667-330.667zM384 842.667c-196.693 0-266.667-69.973-266.667-266.667v-256c0-196.693 69.973-266.667 266.667-266.667h256c196.693 0 266.667 69.973 266.667 266.667v256c0 196.693-69.973 266.667-266.667 266.667h-256zM602.018 208.649c-8.107 0-16.213 2.987-22.613 9.387-12.373 12.373-12.373 32.853 0 45.227l129.707 129.707c12.373 12.373 32.853 12.373 45.227 0s12.373-32.853 0-45.227l-129.707-129.707c-5.973-5.973-14.080-9.387-22.613-9.387zM731.716 338.355h-439.466c-17.493 0-32 14.507-32 32s14.507 32 32 32h439.893c17.493 0 32-14.507 32-32s-14.507-32-32.427-32zM292.268 493.649c-8.107 0-16.213 2.987-22.613 9.387-12.373 12.373-12.373 32.854 0 45.228l129.707 129.707c12.373 12.373 32.852 12.373 45.225 0s12.373-32.853 0-45.227l-129.705-129.708c-6.4-6.4-14.507-9.387-22.613-9.387zM731.716 493.645h-439.466c-17.493 0-32 14.507-32 32s14.507 32.001 32 32.001h439.893c17.493 0 32-14.507 32-32.001s-14.507-32-32.427-32z" />
<glyph unicode="&#xe92d;" glyph-name="Arrow-Down" d="M332.844 570.083c12.99 11.983 33.235 11.167 45.218-1.823l157.439-170.667c11.985-12.992 11.17-33.233-1.822-45.218-12.988-11.985-33.233-11.166-45.218 1.822l-157.44 170.667c-11.983 12.991-11.167 33.236 1.823 45.219zM490.304 352.375c-12.992 11.985-13.807 32.226-1.826 45.218l157.44 170.667c11.985 12.99 32.23 13.806 45.218 1.823 12.992-11.983 13.807-32.228 1.826-45.219l-157.44-170.667c-11.985-12.988-32.23-13.807-45.218-1.822z" />
<glyph unicode="&#xe92e;" glyph-name="Arrow-Left" d="M620.855 640.364c11.981-12.99 11.166-33.235-1.826-45.218l-170.667-157.442c-12.988-11.981-33.233-11.166-45.216 1.826-11.983 12.988-11.167 33.233 1.823 45.218l170.668 157.438c12.988 11.983 33.233 11.167 45.218-1.823zM403.146 482.927c11.983 12.988 32.229 13.807 45.216 1.822l170.667-157.44c12.992-11.981 13.807-32.226 1.826-45.218-11.985-12.988-32.23-13.807-45.218-1.822l-170.668 157.44c-12.99 11.985-13.807 32.226-1.823 45.218z" />
<glyph unicode="&#xe92f;" glyph-name="Arrow-Right" d="M403.146 282.095c-11.983 12.988-11.168 33.233 1.823 45.218l170.668 157.44c12.988 11.981 33.233 11.166 45.218-1.822 11.981-12.992 11.166-33.237-1.826-45.218l-170.667-157.44c-12.988-11.985-33.233-11.17-45.216 1.822zM620.855 439.531c-11.985-12.988-32.23-13.807-45.218-1.822l-170.668 157.44c-12.99 11.983-13.806 32.228-1.823 45.218s32.229 13.806 45.216 1.823l170.667-157.441c12.992-11.981 13.807-32.226 1.826-45.218z" />
<glyph unicode="&#xe930;" glyph-name="Arrow-Up" d="M691.157 352.375c-12.992-11.985-33.237-11.166-45.218 1.822l-157.44 170.667c-11.985 12.991-11.17 33.236 1.822 45.219 12.988 11.983 33.233 11.167 45.218-1.823l157.44-170.666c11.981-12.992 11.166-33.233-1.822-45.218zM533.696 570.083c12.992-11.983 13.807-32.228 1.826-45.219l-157.442-170.667c-11.983-12.988-32.228-13.807-45.218-1.822s-13.806 32.226-1.823 45.218l157.439 170.666c11.985 12.99 32.23 13.806 45.218 1.823z" />
<glyph unicode="&#xe931;" glyph-name="arrow-2" d="M737.271 482.125c-8.107 0-16.218 2.987-22.618 9.387-12.373 12.373-12.373 32.853 0 45.227l136.107 136.107-136.107 136.107c-12.373 12.373-12.373 32.853 0 45.226s32.853 12.373 45.227 0l158.724-158.721c5.973-5.973 9.382-14.079 9.382-22.612s-3.409-16.641-9.382-22.614l-158.724-158.719c-6.4-5.973-14.502-9.387-22.609-9.387zM896 640.854h-768c-17.493 0-32 14.507-32 32s14.507 32 32 32h768c17.493 0 32-14.507 32-32s-14.507-32-32-32zM286.719 32c-8.107 0-16.212 2.987-22.612 9.387l-158.721 158.72c-5.973 5.973-9.385 14.080-9.385 22.613s3.412 16.64 9.385 22.613l158.721 158.72c12.373 12.373 32.853 12.373 45.227 0s12.373-32.853 0-45.227l-136.107-136.107 136.107-136.102c12.373-12.373 12.373-32.858 0-45.231-5.973-6.4-14.081-9.387-22.615-9.387zM896 191.147h-768c-17.493 0-32 14.507-32 32s14.507 32 32 32h768c17.493 0 32-14.507 32-32s-14.507-32-32-32z" />
<glyph unicode="&#xe932;" glyph-name="arrow-3" d="M445.875 641.281c-8.107 0-16.213 2.985-22.613 9.385l-136.107 136.107-136.107-136.107c-12.373-12.373-32.853-12.373-45.226 0s-12.373 32.853 0 45.227l158.721 158.721c5.973 5.973 14.079 9.385 22.612 9.385s16.641-3.412 22.614-9.385l158.719-158.721c12.373-12.373 12.373-32.853 0-45.227-6.4-6.4-14.507-9.385-22.613-9.385zM287.167 32c-17.493 0-32 14.507-32 32v768c0 17.493 14.507 32 32 32s32-14.507 32-32v-768c0-17.493-14.507-32-32-32zM737.28 32.013c-8.533 0-16.64 3.409-22.613 9.382l-158.72 158.724c-12.373 12.373-12.373 32.853 0 45.227s32.853 12.373 45.227 0l136.107-136.107 136.102 136.107c12.373 12.373 32.858 12.373 45.231 0s12.373-32.853 0-45.227l-158.72-158.724c-5.973-5.973-14.507-9.382-22.613-9.382zM736.832 32c-17.493 0-32 14.507-32 32v768c0 17.493 14.507 32 32 32s32-14.507 32-32v-768c0-17.493-14.080-32-32-32z" />
<glyph unicode="&#xe933;" glyph-name="arrow-bottom" d="M512 160c-60.587 0-116.053 38.4-156.16 107.947l-113.92 197.547c-40.533 69.547-45.653 136.533-15.36 189.013s91.307 81.493 171.52 81.493h227.84c80.213 0 141.227-29.013 171.52-81.493s24.747-119.893-15.36-189.44l-113.92-197.547c-40.107-69.12-95.573-107.52-156.16-107.52zM398.080 672c-56.747 0-97.707-17.493-116.053-49.493-18.773-32-13.227-76.373 14.933-125.013l113.92-197.547c28.16-49.067 64-75.947 100.693-75.947s72.533 26.88 100.693 75.947l113.92 197.547c28.16 49.067 33.707 93.44 15.36 125.44s-59.733 49.493-116.053 49.493h-227.413v-0.427z" />
<glyph unicode="&#xe934;" glyph-name="arrow-circle-down" d="M512-10.667c-253.013 0-458.667 205.653-458.667 458.667s205.653 458.667 458.667 458.667c253.013 0 458.667-205.653 458.667-458.667s-205.653-458.667-458.667-458.667zM512 842.667c-217.6 0-394.667-177.067-394.667-394.667s177.067-394.667 394.667-394.667c217.6 0 394.667 177.067 394.667 394.667s-177.067 394.667-394.667 394.667zM512.009 319.578c-8.107 0-16.213 2.987-22.613 9.387l-150.615 150.613c-12.373 12.373-12.373 32.853 0 45.227s32.853 12.372 45.227 0l128.002-128 128 128c12.373 12.372 32.853 12.372 45.227 0s12.373-32.853 0-45.227l-150.613-150.613c-6.4-6.4-14.507-9.387-22.613-9.387z" />
<glyph unicode="&#xe935;" glyph-name="arrow-circle-left" d="M512-10.667c-253.013 0-458.667 205.653-458.667 458.667s205.653 458.667 458.667 458.667c253.013 0 458.667-205.653 458.667-458.667s-205.653-458.667-458.667-458.667zM512 842.667c-217.6 0-394.667-177.067-394.667-394.667s177.067-394.667 394.667-394.667c217.6 0 394.667 177.067 394.667 394.667s-177.067 394.667-394.667 394.667zM565.756 265.378c-8.107 0-16.213 2.987-22.613 9.387l-150.612 150.613c-12.373 12.373-12.373 32.853 0 45.227l150.612 150.615c12.373 12.373 32.853 12.373 45.227 0s12.373-32.853 0-45.227l-128-128.002 128-128c12.373-12.373 12.373-32.853 0-45.227-5.973-6.4-14.080-9.387-22.613-9.387z" />
<glyph unicode="&#xe936;" glyph-name="arrow-circle-right" d="M512-10.667c-253.013 0-458.667 205.653-458.667 458.667s205.653 458.667 458.667 458.667c253.013 0 458.667-205.653 458.667-458.667s-205.653-458.667-458.667-458.667zM512 842.667c-217.6 0-394.667-177.067-394.667-394.667s177.067-394.667 394.667-394.667c217.6 0 394.667 177.067 394.667 394.667s-177.067 394.667-394.667 394.667zM458.227 265.378c-8.107 0-16.213 2.987-22.613 9.387-12.374 12.373-12.374 32.853 0 45.227l128 128-128 128.002c-12.374 12.373-12.374 32.853 0 45.227s32.853 12.373 45.227 0l150.613-150.615c12.373-12.373 12.373-32.853 0-45.227l-150.613-150.613c-6.4-6.4-14.507-9.387-22.613-9.387z" />
<glyph unicode="&#xe937;" glyph-name="arrow-circle-up" d="M512-10.667c-253.013 0-458.667 205.653-458.667 458.667s205.653 458.667 458.667 458.667c253.013 0 458.667-205.653 458.667-458.667s-205.653-458.667-458.667-458.667zM512 842.667c-217.6 0-394.667-177.067-394.667-394.667s177.067-394.667 394.667-394.667c217.6 0 394.667 177.067 394.667 394.667s-177.067 394.667-394.667 394.667zM662.622 362.244c-8.107 0-16.213 2.987-22.613 9.387l-128 128-128.002-128c-12.373-12.373-32.853-12.373-45.227 0s-12.373 32.853 0 45.227l150.615 150.612c12.373 12.373 32.853 12.373 45.227 0l150.613-150.612c12.373-12.373 12.373-32.853 0-45.227-6.4-6.4-14.507-9.387-22.613-9.387z" />
<glyph unicode="&#xe938;" glyph-name="arrow-down-1" d="M511.979 243.196c-29.867 0-59.733 11.52-82.347 34.133l-278.185 278.185c-12.373 12.373-12.373 32.853 0 45.227s32.853 12.373 45.227 0l278.185-278.185c20.48-20.48 53.76-20.48 74.24 0l278.187 278.185c12.373 12.373 32.853 12.373 45.227 0s12.373-32.853 0-45.227l-278.187-278.185c-22.613-22.613-52.48-34.133-82.347-34.133z" />
<glyph unicode="&#xe939;" glyph-name="arrow-down-2" d="M512-10.667c-253.013 0-458.667 205.653-458.667 458.667s205.653 458.667 458.667 458.667c253.013 0 458.667-205.653 458.667-458.667s-205.653-458.667-458.667-458.667zM512 842.667c-217.6 0-394.667-177.067-394.667-394.667s177.067-394.667 394.667-394.667c217.6 0 394.667 177.067 394.667 394.667s-177.067 394.667-394.667 394.667zM512 309.333c-17.493 0-32 14.507-32 32v256c0 17.493 14.507 32 32 32s32-14.507 32-32v-256c0-17.493-14.507-32-32-32zM511.996 266.671c-8.107 0-16.213 2.987-22.613 9.387l-127.998 128c-12.373 12.373-12.373 32.853 0 45.227s32.853 12.373 45.227 0l105.385-105.387 105.387 105.387c12.373 12.373 32.853 12.373 45.227 0s12.373-32.853 0-45.227l-128-128c-6.4-6.4-14.507-9.387-22.613-9.387z" />
<glyph unicode="&#xe93a;" glyph-name="arrow-down" d="M512.004 53.329c-8.107 0-16.213 2.987-22.613 9.387l-258.986 258.987c-12.373 12.373-12.373 32.853 0 45.227s32.853 12.373 45.227 0l236.372-236.373 236.373 236.373c12.373 12.373 32.853 12.373 45.227 0s12.373-32.853 0-45.227l-258.987-258.987c-6.4-6.4-14.507-9.387-22.613-9.387zM512 60.587c-17.493 0-32 14.507-32 32v718.080c0 17.493 14.507 32 32 32s32-14.507 32-32v-718.080c0-17.493-14.507-32-32-32z" />
<glyph unicode="&#xe93b;" glyph-name="arrow-left-1" d="M644.267 142.942c-35.84 0-75.093 11.52-114.773 34.56l-197.547 113.92c-69.547 40.533-107.947 96-107.947 156.587s38.4 116.053 107.947 156.16l197.547 113.92c69.547 40.107 136.533 45.653 189.44 15.36 52.48-30.293 81.493-91.307 81.493-171.52v-227.84c0-80.213-29.013-141.227-81.493-171.52-22.613-13.227-47.787-19.627-74.667-19.627zM644.267 688.649c-24.747 0-52.907-8.533-82.773-26.027l-197.547-113.92c-49.067-28.16-75.947-64-75.947-100.693s26.88-72.533 75.947-100.693l197.547-113.92c49.067-28.16 93.44-33.707 125.44-15.36s49.493 59.733 49.493 116.053v227.84c0 56.32-17.493 97.707-49.493 116.053-12.8 7.253-27.307 10.667-42.667 10.667z" />
<glyph unicode="&#xe93c;" glyph-name="arrow-left-2" d="M640.013 78.080c-8.107 0-16.213 2.987-22.613 9.387l-278.188 278.187c-45.227 45.227-45.227 119.467 0 164.693l278.188 278.186c12.373 12.373 32.853 12.373 45.227 0s12.373-32.853 0-45.227l-278.188-278.186c-20.48-20.48-20.48-53.76 0-74.24l278.188-278.187c12.373-12.373 12.373-32.853 0-45.227-6.4-5.973-14.507-9.387-22.613-9.387z" />
<glyph unicode="&#xe93d;" glyph-name="arrow-left-3" d="M512-10.667c-253.013 0-458.667 205.653-458.667 458.667s205.653 458.667 458.667 458.667c253.013 0 458.667-205.653 458.667-458.667s-205.653-458.667-458.667-458.667zM512 842.667c-217.6 0-394.667-177.067-394.667-394.667s177.067-394.667 394.667-394.667c217.6 0 394.667 177.067 394.667 394.667s-177.067 394.667-394.667 394.667zM661.333 416h-256c-17.493 0-32 14.507-32 32s14.507 32 32 32h256c17.493 0 32-14.507 32-32s-14.507-32-32-32zM490.662 288.004c-8.107 0-16.213 2.987-22.613 9.387l-127.998 128c-12.373 12.373-12.373 32.853 0 45.227l127.998 127.998c12.373 12.373 32.853 12.373 45.227 0s12.373-32.853 0-45.227l-105.385-105.385 105.385-105.387c12.373-12.373 12.373-32.853 0-45.227-6.4-6.4-14.507-9.387-22.613-9.387z" />
<glyph unicode="&#xe93e;" glyph-name="arrow-left" d="M408.338 157.009c-8.107 0-16.213 2.987-22.613 9.387l-258.987 258.987c-12.373 12.373-12.373 32.853 0 45.227l258.987 258.986c12.373 12.373 32.853 12.373 45.225 0s12.373-32.853 0-45.227l-236.372-236.372 236.372-236.373c12.373-12.373 12.373-32.853 0-45.227-5.972-6.4-14.505-9.387-22.612-9.387zM874.662 416h-718.079c-17.493 0-32 14.507-32 32s14.507 32 32 32h718.079c17.493 0 32-14.507 32-32s-14.507-32-32-32z" />
<glyph unicode="&#xe93f;" glyph-name="arrow-right-1" d="M615.684 157.009c-8.107 0-16.213 2.987-22.613 9.387-12.373 12.373-12.373 32.853 0 45.227l236.373 236.373-236.373 236.372c-12.373 12.373-12.373 32.853 0 45.227s32.853 12.373 45.227 0l258.987-258.986c12.373-12.373 12.373-32.853 0-45.227l-258.987-258.987c-6.4-6.4-14.507-9.387-22.613-9.387zM867.413 416h-718.080c-17.493 0-32 14.507-32 32s14.507 32 32 32h718.080c17.493 0 32-14.507 32-32s-14.507-32-32-32z" />
<glyph unicode="&#xe940;" glyph-name="arrow-right-2" d="M512-10.667c-253.013 0-458.667 205.653-458.667 458.667s205.653 458.667 458.667 458.667c253.013 0 458.667-205.653 458.667-458.667s-205.653-458.667-458.667-458.667zM512 842.667c-217.6 0-394.667-177.067-394.667-394.667s177.067-394.667 394.667-394.667c217.6 0 394.667 177.067 394.667 394.667s-177.067 394.667-394.667 394.667zM618.667 416h-256c-17.493 0-32 14.507-32 32s14.507 32 32 32h256c17.493 0 32-14.507 32-32s-14.507-32-32-32zM533.35 288.004c-8.107 0-16.213 2.987-22.613 9.387-12.373 12.373-12.373 32.853 0 45.227l105.387 105.387-105.387 105.385c-12.373 12.373-12.373 32.853 0 45.227s32.853 12.373 45.227 0l128-127.998c12.373-12.373 12.373-32.853 0-45.227l-128-128c-6.4-6.4-14.507-9.387-22.613-9.387z" />
<glyph unicode="&#xe941;" glyph-name="arrow-right-3" d="M380.143 78.080c-8.107 0-16.213 2.987-22.613 9.387-12.373 12.373-12.373 32.853 0 45.227l278.186 278.187c20.48 20.48 20.48 53.76 0 74.24l-278.186 278.186c-12.373 12.373-12.373 32.853 0 45.227s32.853 12.373 45.227 0l278.186-278.186c21.76-21.76 34.133-51.2 34.133-82.347s-11.947-60.587-34.133-82.347l-278.186-278.187c-6.4-5.973-14.507-9.387-22.613-9.387z" />
<glyph unicode="&#xe942;" glyph-name="arrow-right-4" d="M379.733 142.942c-26.88 0-52.053 6.4-74.24 19.2-52.48 30.293-81.493 91.307-81.493 171.52v228.267c0 80.213 29.013 141.227 81.493 171.52s119.467 24.747 189.44-15.36l197.547-113.92c69.547-40.107 107.947-95.573 107.947-156.16s-38.4-116.053-107.947-156.16l-197.547-113.92c-40.107-23.467-79.36-34.987-115.2-34.987zM379.733 688.649c-15.787 0-30.293-3.413-42.667-10.667-31.573-18.347-49.067-59.307-49.067-116.053v-227.84c0-56.32 17.493-97.707 49.493-116.053s76.373-12.8 125.44 15.36l197.547 113.92c49.067 28.16 75.947 64 75.947 100.693s-26.88 72.533-75.947 100.693l-197.547 113.92c-30.293 17.493-58.453 26.027-83.2 26.027z" />
<glyph unicode="&#xe943;" glyph-name="arrow-right" d="M640-10.667h-256c-231.68 0-330.667 98.987-330.667 330.667v256c0 231.68 98.987 330.667 330.667 330.667h256c231.68 0 330.667-98.987 330.667-330.667v-256c0-231.68-98.987-330.667-330.667-330.667zM384 842.667c-196.693 0-266.667-69.973-266.667-266.667v-256c0-196.693 69.973-266.667 266.667-266.667h256c196.693 0 266.667 69.973 266.667 266.667v256c0 196.693-69.973 266.667-266.667 266.667h-256zM458.227 265.378c-8.107 0-16.213 2.987-22.613 9.387-12.374 12.373-12.374 32.853 0 45.227l128 128-128 128.002c-12.374 12.373-12.374 32.853 0 45.227s32.853 12.373 45.227 0l150.613-150.615c12.373-12.373 12.373-32.853 0-45.227l-150.613-150.613c-6.4-6.4-14.507-9.387-22.613-9.387z" />
<glyph unicode="&#xe944;" glyph-name="arrow-square-down" d="M640-10.667h-256c-231.68 0-330.667 98.987-330.667 330.667v256c0 231.68 98.987 330.667 330.667 330.667h256c231.68 0 330.667-98.987 330.667-330.667v-256c0-231.68-98.987-330.667-330.667-330.667zM384 842.667c-196.693 0-266.667-69.973-266.667-266.667v-256c0-196.693 69.973-266.667 266.667-266.667h256c196.693 0 266.667 69.973 266.667 266.667v256c0 196.693-69.973 266.667-266.667 266.667h-256zM512.009 323.849c-8.107 0-16.213 2.987-22.613 9.387l-150.615 150.613c-12.373 12.373-12.373 32.853 0 45.227s32.853 12.372 45.227 0l128.002-128 128 128c12.373 12.372 32.853 12.372 45.227 0s12.373-32.853 0-45.227l-150.613-150.613c-6.4-6.4-14.507-9.387-22.613-9.387z" />
<glyph unicode="&#xe945;" glyph-name="arrow-square-left" d="M640-10.667h-256c-231.68 0-330.667 98.987-330.667 330.667v256c0 231.68 98.987 330.667 330.667 330.667h256c231.68 0 330.667-98.987 330.667-330.667v-256c0-231.68-98.987-330.667-330.667-330.667zM384 842.667c-196.693 0-266.667-69.973-266.667-266.667v-256c0-196.693 69.973-266.667 266.667-266.667h256c196.693 0 266.667 69.973 266.667 266.667v256c0 196.693-69.973 266.667-266.667 266.667h-256zM565.756 265.378c-8.107 0-16.213 2.987-22.613 9.387l-150.612 150.613c-12.373 12.373-12.373 32.853 0 45.227l150.612 150.615c12.373 12.373 32.853 12.373 45.227 0s12.373-32.853 0-45.227l-128-128.002 128-128c12.373-12.373 12.373-32.853 0-45.227-5.973-6.4-14.080-9.387-22.613-9.387z" />
<glyph unicode="&#xe946;" glyph-name="arrow-square-up" d="M640-10.667h-256c-231.68 0-330.667 98.987-330.667 330.667v256c0 231.68 98.987 330.667 330.667 330.667h256c231.68 0 330.667-98.987 330.667-330.667v-256c0-231.68-98.987-330.667-330.667-330.667zM384 842.667c-196.693 0-266.667-69.973-266.667-266.667v-256c0-196.693 69.973-266.667 266.667-266.667h256c196.693 0 266.667 69.973 266.667 266.667v256c0 196.693-69.973 266.667-266.667 266.667h-256zM662.622 353.702c-8.107 0-16.213 2.987-22.613 9.387l-128 128-128.002-128c-12.373-12.373-32.853-12.373-45.227 0s-12.373 32.853 0 45.227l150.615 150.612c12.373 12.373 32.853 12.373 45.227 0l150.613-150.612c12.373-12.373 12.373-32.853 0-45.227-6.4-6.4-14.507-9.387-22.613-9.387z" />
<glyph unicode="&#xe947;" glyph-name="arrow-square" d="M517.999 285.022c-17.493 0-32 14.507-32 32v83.627c0 125.013 101.547 226.56 226.987 226.56h83.627c17.493 0 32-14.507 32-32s-14.507-32-32-32h-83.627c-89.6 0-162.987-72.96-162.987-162.56v-83.627c0-17.92-14.507-32-32-32zM517.978 191.996c-17.493 0-32 14.507-32 32v176.213c0 89.6-72.958 162.562-162.558 162.562h-83.628c-17.493 0-32 14.507-32 32s14.507 32 32 32h83.628c125.012 0 226.558-101.548 226.558-226.562v-176.213c0-17.493-14.507-32-32-32zM304.611 486.404c-8.107 0-16.215 2.987-22.615 9.387l-76.799 76.798c-12.373 12.373-12.373 32.853 0 45.227l76.799 76.8c12.373 12.373 32.853 12.373 45.227 0s12.373-32.853 0-45.227l-54.185-54.187 54.185-54.187c12.373-12.371 12.373-32.851 0-45.225-6.4-6.4-14.505-9.387-22.612-9.387zM719.351 486.404c-8.107 0-16.213 2.987-22.613 9.387-12.373 12.373-12.373 32.853 0 45.225l54.187 54.187-54.187 54.187c-12.373 12.373-12.373 32.853 0 45.227s32.853 12.373 45.227 0l76.8-76.8c12.373-12.373 12.373-32.853 0-45.227l-76.8-76.798c-5.973-6.4-14.507-9.387-22.613-9.387zM640-10.667h-256c-231.68 0-330.667 98.987-330.667 330.667v256c0 231.68 98.987 330.667 330.667 330.667h256c231.68 0 330.667-98.987 330.667-330.667v-256c0-231.68-98.987-330.667-330.667-330.667zM384 842.667c-196.693 0-266.667-69.973-266.667-266.667v-256c0-196.693 69.973-266.667 266.667-266.667h256c196.693 0 266.667 69.973 266.667 266.667v256c0 196.693-69.973 266.667-266.667 266.667h-256z" />
<glyph unicode="&#xe948;" glyph-name="arrow-swap-horizontal" d="M660.894 74.244c-8.107 0-16.213 2.987-22.613 9.387-12.373 12.373-12.373 32.853 0 45.227l213.76 213.76c12.373 12.373 32.853 12.373 45.227 0s12.373-32.853 0-45.227l-213.76-213.76c-6.4-5.973-14.507-9.387-22.613-9.387zM874.667 288.418h-725.333c-17.493 0-32 14.507-32 32s14.507 32 32 32h725.333c17.493 0 32-14.507 32-32s-14.507-32-32-32zM149.352 543.576c-8.107 0-16.213 2.987-22.613 9.387-12.373 12.373-12.373 32.853 0 45.227l213.76 213.76c12.373 12.373 32.853 12.373 45.227 0s12.373-32.853 0-45.227l-213.76-213.76c-5.973-5.973-14.507-9.387-22.613-9.387zM874.667 543.583h-725.333c-17.493 0-32 14.507-32 32s14.507 32 32 32h725.333c17.493 0 32-14.507 32-32s-14.507-32-32-32z" />
<glyph unicode="&#xe949;" glyph-name="arrow-swap" d="M384.445 53.325c-8.107 0-16.213 2.987-22.613 9.387l-213.76 213.76c-12.373 12.373-12.373 32.853 0 45.227s32.853 12.373 45.227 0l213.76-213.76c12.373-12.373 12.373-32.853 0-45.227-6.4-5.973-14.507-9.387-22.613-9.387zM384.417 53.333c-17.493 0-32 14.507-32 32v725.333c0 17.493 14.507 32 32 32s32-14.507 32-32v-725.333c0-17.493-14.507-32-32-32zM853.777 564.909c-8.107 0-16.213 2.987-22.613 9.387l-213.76 213.76c-12.373 12.373-12.373 32.853 0 45.227s32.853 12.373 45.227 0l213.76-213.76c12.373-12.373 12.373-32.853 0-45.227-6.4-6.4-14.507-9.387-22.613-9.387zM639.582 53.333c-17.493 0-32 14.507-32 32v725.333c0 17.493 14.507 32 32 32s32-14.507 32-32v-725.333c0-17.493-14.080-32-32-32z" />
<glyph unicode="&#xe94a;" glyph-name="arrow-up-1" d="M512-10.667c-253.013 0-458.667 205.653-458.667 458.667s205.653 458.667 458.667 458.667c253.013 0 458.667-205.653 458.667-458.667s-205.653-458.667-458.667-458.667zM512 842.667c-217.6 0-394.667-177.067-394.667-394.667s177.067-394.667 394.667-394.667c217.6 0 394.667 177.067 394.667 394.667s-177.067 394.667-394.667 394.667zM512 266.667c-17.493 0-32 14.507-32 32v256c0 17.493 14.507 32 32 32s32-14.507 32-32v-256c0-17.493-14.507-32-32-32zM640.017 437.338c-8.107 0-16.213 2.987-22.613 9.387l-105.387 105.385-105.385-105.385c-12.373-12.373-32.853-12.373-45.227 0s-12.373 32.853 0 45.227l127.999 127.998c12.373 12.373 32.853 12.373 45.227 0l128-127.998c12.373-12.373 12.373-32.853 0-45.227-6.4-6.4-14.507-9.387-22.613-9.387z" />
<glyph unicode="&#xe94b;" glyph-name="arrow-up-2" d="M849.92 285.862c-8.107 0-16.213 2.987-22.613 9.387l-278.187 278.188c-20.48 20.48-53.76 20.48-74.24 0l-278.186-278.188c-12.373-12.373-32.853-12.373-45.227 0s-12.373 32.853 0 45.227l278.186 278.188c45.227 45.227 119.040 45.227 164.693 0l278.187-278.188c12.373-12.373 12.373-32.853 0-45.227-6.4-5.973-14.507-9.387-22.613-9.387z" />
<glyph unicode="&#xe94c;" glyph-name="arrow-up-3" d="M770.991 519.684c-8.107 0-16.213 2.987-22.613 9.387l-236.373 236.372-236.372-236.372c-12.373-12.373-32.853-12.373-45.227 0-12.373 12.372-12.373 32.852 0 45.225l258.986 258.987c12.373 12.373 32.853 12.373 45.227 0l258.987-258.987c12.373-12.373 12.373-32.853 0-45.225-5.973-6.4-14.507-9.387-22.613-9.387zM512 53.338c-17.493 0-32 14.507-32 32v718.079c0 17.493 14.507 32 32 32s32-14.507 32-32v-718.079c0-17.493-14.507-32-32-32z" />
<glyph unicode="&#xe94d;" glyph-name="arrow-up" d="M625.911 160h-227.84c-80.213 0-141.227 29.013-171.52 81.493s-24.747 119.893 15.36 189.44l113.92 197.547c40.107 69.12 95.573 107.52 156.16 107.52s116.053-38.4 156.16-107.947l113.92-197.547c40.107-69.547 45.653-136.96 15.36-189.44-30.293-52.053-91.307-81.067-171.52-81.067zM511.991 672c-36.693 0-72.533-26.88-100.693-75.947l-113.92-197.547c-28.16-49.067-33.707-93.44-15.36-125.44s59.733-49.493 116.053-49.493h227.84c56.32 0 97.707 17.493 116.053 49.493s12.8 76.373-15.36 125.44l-113.92 197.547c-28.16 49.067-64 75.947-100.693 75.947z" />
<glyph unicode="&#xe94e;" glyph-name="arrow" d="M512-10.667c-17.493 0-32 14.507-32 32v85.333c0 17.493 14.507 32 32 32s32-14.507 32-32v-85.333c0-17.493-14.507-32-32-32zM512 160c-17.493 0-32 14.507-32 32v85.333c0 17.493 14.507 32 32 32s32-14.507 32-32v-85.333c0-17.493-14.507-32-32-32zM512 330.667c-17.493 0-32 14.507-32 32v128c0 182.187 148.48 330.667 330.667 330.667h128c17.493 0 32-14.507 32-32s-14.507-32-32-32h-128c-147.2 0-266.667-119.467-266.667-266.667v-128c0-17.493-14.507-32-32-32zM512 330.667c-17.493 0-32 14.507-32 32v128c0 147.2-119.467 266.667-266.667 266.667h-128c-17.493 0-32 14.507-32 32s14.507 32 32 32h128c182.187 0 330.667-148.48 330.667-330.667v-128c0-17.493-14.507-32-32-32zM170.644 672.003c-8.107 0-16.215 2.987-22.615 9.387l-85.333 85.333c-12.373 12.373-12.373 32.853 0 45.227l85.333 85.333c12.373 12.373 32.856 12.373 45.229 0s12.373-32.853 0-45.227l-62.721-62.72 62.721-62.72c12.373-12.373 12.373-32.853 0-45.227-6.4-6.4-14.508-9.387-22.615-9.387zM853.312 672.003c-8.107 0-16.213 2.987-22.613 9.387-12.373 12.373-12.373 32.853 0 45.227l62.72 62.72-62.72 62.72c-12.373 12.373-12.373 32.853 0 45.227s32.853 12.373 45.227 0l85.333-85.333c12.373-12.373 12.373-32.853 0-45.227l-85.333-85.333c-6.4-6.4-14.507-9.387-22.613-9.387z" />
<glyph unicode="&#xe94f;" glyph-name="attach-circle" d="M520.525 218.458c-29.867 0-60.16 11.52-82.773 34.133-22.188 22.187-34.561 51.627-34.561 82.773s12.373 61.013 34.561 82.773l60.156 60.16c12.373 12.373 32.853 12.373 45.227 0s12.373-32.853 0-45.227l-60.156-60.16c-10.24-10.24-15.787-23.467-15.787-37.547s5.547-27.733 15.787-37.547c20.907-20.907 54.613-20.907 75.52 0l94.72 94.72c54.187 54.187 54.187 142.078 0 196.265s-142.080 54.187-196.267 0l-103.256-103.252c-21.76-21.76-33.705-50.347-33.705-80.64s11.945-59.307 33.705-80.64c12.373-12.373 12.373-32.853 0-45.227s-32.853-12.373-45.226 0c-33.707 33.707-52.052 78.507-52.052 126.293s18.345 92.587 52.052 126.293l103.255 103.252c78.934 78.933 207.788 78.933 286.721 0s78.933-207.786 0-286.719l-94.72-94.72c-23.040-23.467-52.907-34.987-83.2-34.987zM512-10.667c-253.013 0-458.667 205.653-458.667 458.667s205.653 458.667 458.667 458.667c253.013 0 458.667-205.653 458.667-458.667s-205.653-458.667-458.667-458.667zM512 842.667c-217.6 0-394.667-177.067-394.667-394.667s177.067-394.667 394.667-394.667c217.6 0 394.667 177.067 394.667 394.667s-177.067 394.667-394.667 394.667z" />
<glyph unicode="&#xe950;" glyph-name="attach-square" d="M520.525 218.458c-29.867 0-60.16 11.52-82.773 34.133-22.188 22.187-34.561 51.627-34.561 82.773s12.373 61.013 34.561 82.773l60.156 60.16c12.373 12.373 32.853 12.373 45.227 0s12.373-32.853 0-45.227l-60.156-60.16c-10.24-10.24-15.787-23.467-15.787-37.547s5.547-27.733 15.787-37.547c20.907-20.907 54.613-20.907 75.52 0l94.72 94.72c54.187 54.187 54.187 142.078 0 196.265s-142.080 54.187-196.267 0l-103.256-103.252c-21.76-21.76-33.705-50.347-33.705-80.64s11.945-59.307 33.705-80.64c12.373-12.373 12.373-32.853 0-45.227s-32.853-12.373-45.226 0c-33.707 33.707-52.052 78.507-52.052 126.293s18.345 92.587 52.052 126.293l103.255 103.252c78.934 78.933 207.788 78.933 286.721 0s78.933-207.786 0-286.719l-94.72-94.72c-23.040-23.467-52.907-34.987-83.2-34.987zM640-10.667h-256c-231.68 0-330.667 98.987-330.667 330.667v256c0 231.68 98.987 330.667 330.667 330.667h256c231.68 0 330.667-98.987 330.667-330.667v-256c0-231.68-98.987-330.667-330.667-330.667zM384 842.667c-196.693 0-266.667-69.973-266.667-266.667v-256c0-196.693 69.973-266.667 266.667-266.667h256c196.693 0 266.667 69.973 266.667 266.667v256c0 196.693-69.973 266.667-266.667 266.667h-256z" />
<glyph unicode="&#xe951;" glyph-name="audio-square" d="M640-10.667h-256c-231.68 0-330.667 98.987-330.667 330.667v256c0 231.68 98.987 330.667 330.667 330.667h256c231.68 0 330.667-98.987 330.667-330.667v-256c0-231.68-98.987-330.667-330.667-330.667zM384 842.667c-196.693 0-266.667-69.973-266.667-266.667v-256c0-196.693 69.973-266.667 266.667-266.667h256c196.693 0 266.667 69.973 266.667 266.667v256c0 196.693-69.973 266.667-266.667 266.667h-256zM410.453 189.867c-67.413 0-122.453 55.036-122.453 122.449s55.040 122.453 122.453 122.453c67.413 0 122.453-55.040 122.453-122.453s-55.040-122.449-122.453-122.449zM410.453 370.342c-32 0-58.453-26.027-58.453-58.453 0-32 26.027-58.453 58.453-58.453 32 0 58.453 26.027 58.453 58.453s-26.453 58.453-58.453 58.453zM500.915 280.32c-17.493 0-32 14.507-32 32v316.159c0 17.493 14.507 32 32 32s32-14.507 32-32v-316.159c0-17.92-14.507-32-32-32zM662.199 472.333c-8.96 0-18.351 1.707-27.738 4.693l-99.836 33.28c-37.547 12.373-65.711 51.625-65.711 91.305v26.453c0 26.88 11.098 50.347 30.724 64.427s45.222 17.494 70.822 8.961l99.844-33.281c37.547-12.373 65.702-51.625 65.702-91.305v-26.453c0-26.88-11.089-50.347-30.716-64.427-12.373-8.96-27.307-13.653-43.093-13.653zM542.306 642.145c-2.133 0-4.267-0.425-5.547-1.279-2.56-1.707-4.271-6.402-4.271-12.375v-26.453c0-11.947 11.093-26.879 22.187-30.719l99.844-33.281c5.547-1.707 10.667-1.707 13.227 0s4.262 6.402 4.262 12.375v26.453c0 11.947-11.093 26.879-22.187 30.719l-99.836 33.281c-2.56 0.853-5.547 1.279-7.68 1.279z" />
<glyph unicode="&#xe952;" glyph-name="augur-rep" d="M512-10.667c-253.013 0-458.667 205.653-458.667 458.667s205.653 458.667 458.667 458.667c253.013 0 458.667-205.653 458.667-458.667s-205.653-458.667-458.667-458.667zM512 842.667c-217.6 0-394.667-177.067-394.667-394.667s177.067-394.667 394.667-394.667c217.6 0 394.667 177.067 394.667 394.667s-177.067 394.667-394.667 394.667zM639.996 458.675c-11.52 0-23.040 6.4-28.587 17.493l-97.707 195.841h-2.987l-97.705-195.841c-7.68-15.787-26.88-22.187-43.093-14.507-15.787 8.107-22.187 27.307-14.507 43.093l106.665 213.335c5.547 10.667 16.64 17.493 28.587 17.493h42.667c11.947 0 23.040-6.827 28.587-17.493l106.667-213.335c8.107-15.787 1.707-34.987-14.507-43.093-4.267-1.707-9.387-2.987-14.080-2.987zM512 160c-5.547 0-11.52 1.707-16.64 4.693l-213.333 128c-14.507 8.533-19.627 26.88-12.373 41.813l42.667 85.333c8.107 15.787 27.307 22.187 43.093 14.507 15.787-8.107 22.187-27.307 14.507-43.093l-29.44-58.88 171.52-102.827 171.52 102.827-29.44 58.88c-8.107 15.787-1.707 34.987 14.507 43.093 15.787 7.68 34.987 1.707 43.093-14.507l42.667-85.333c7.68-14.933 2.133-33.28-12.373-41.813l-213.333-128c-5.12-2.987-11.093-4.693-16.64-4.693z" />
<glyph unicode="&#xe953;" glyph-name="autobrightness" d="M512.431-10.231c-26.88 0-53.333 8.96-74.24 26.88l-67.412 57.6c-6.827 5.973-23.893 11.947-32.853 11.947h-74.667c-63.147 0-114.347 51.2-114.347 114.347v72.96c0 8.96-5.973 26.027-11.52 32.427l-58.027 68.267c-34.987 41.387-34.987 106.24 0 148.053l58.027 68.266c5.547 6.4 11.52 23.467 11.52 32.427v72.533c0 63.147 51.2 114.347 114.347 114.347h73.813c8.96 0 25.6 6.4 32.853 12.373l67.412 57.6c41.813 35.413 107.093 35.413 148.907 0l67.413-57.6c6.827-5.973 24.32-11.947 33.28-11.947h72.533c63.147 0 114.347-51.2 114.347-114.347v-72.533c0-8.96 6.4-25.6 12.373-32.853l57.6-67.412c35.84-42.24 35.413-107.52 0-148.907l-57.6-67.413c-5.973-7.253-11.947-23.893-11.947-32.853v-72.533c0-63.147-51.2-114.347-114.347-114.347h-72.533c-8.96 0-25.6-6.4-33.28-12.373l-67.413-57.6c-20.907-18.347-47.787-27.307-74.24-27.307zM263.258 745.821c-27.733 0-50.347-22.613-50.347-50.347v-72.533c0-24.32-11.093-55.040-26.88-73.813l-58.027-68.266c-14.507-17.493-14.507-48.213 0-65.28l57.6-67.84c15.36-17.493 26.88-49.493 26.88-73.813v-72.96c0-27.733 22.613-50.347 50.347-50.347h74.24c23.893 0 55.467-11.52 74.24-27.307l67.839-58.027c17.493-14.933 47.787-14.933 65.707 0l67.413 57.6c19.2 16.213 50.347 27.307 74.24 27.307h72.533c27.733 0 50.347 22.613 50.347 50.347v72.533c0 23.893 11.52 55.040 27.307 74.24l58.027 67.84c14.933 17.493 14.933 48.213 0 65.707l-57.6 67.412c-16.213 19.2-27.307 50.347-27.307 74.24v72.96c0 27.733-22.613 50.347-50.347 50.347h-72.533c-24.32 0-55.893 11.52-74.667 27.307l-67.84 58.027c-17.493 14.933-47.787 14.933-65.707 0l-66.986-58.027c-19.2-15.787-50.347-27.307-74.667-27.307h-73.813zM631.876 267.102l-119.893 270.081-119.895-270.081-58.88 26.027 149.335 335.788h58.88l149.333-335.788-58.88-26.027zM586.667 360.102h-149.333c-17.493 0-32 14.507-32 32s14.507 32 32 32h149.333c17.493 0 32-14.507 32-32s-14.507-32-32-32z" />
<glyph unicode="&#xe954;" glyph-name="autonio-niox" d="M512-10.667c-253.013 0-458.667 205.653-458.667 458.667s205.653 458.667 458.667 458.667c253.013 0 458.667-205.653 458.667-458.667s-205.653-458.667-458.667-458.667zM512 842.667c-217.6 0-394.667-177.067-394.667-394.667s177.067-394.667 394.667-394.667c217.6 0 394.667 177.067 394.667 394.667s-177.067 394.667-394.667 394.667zM621.649 495.356h-219.308c-11.52 0-22.185 6.404-27.732 16.218-5.547 10.24-5.549 22.185 0.425 32.425l109.655 183.040c11.52 19.2 43.52 19.2 55.040 0l109.649-183.040c5.973-9.813 5.978-22.185 0.431-32.425-5.973-10.24-16.64-16.218-28.16-16.218zM458.662 559.358h106.24l-53.333 88.747-52.907-88.747zM475.307 239.369h-219.308c-11.52 0-22.188 6.4-27.735 16.213s-5.546 22.187 0.427 32l109.654 183.040c11.52 19.2 43.519 19.2 55.039 0l109.652-183.040c5.973-9.813 5.978-22.187 0.431-32-5.973-10.24-16.64-16.213-28.16-16.213zM312.319 303.369h106.24l-53.333 88.747-52.906-88.747zM768.004 239.369h-219.311c-11.52 0-22.182 6.4-27.729 16.213s-5.551 22.187 0.422 32l109.653 183.040c11.52 19.2 43.524 19.2 55.044 0l109.653-183.040c5.973-9.813 5.969-22.187 0.422-32-5.973-10.24-16.636-16.213-28.156-16.213zM605.013 303.369h106.24l-53.333 88.747-52.907-88.747z" />
<glyph unicode="&#xe955;" glyph-name="avalanche-avax" d="M392.105 234.244h-116.906c-18.347 0-35.415 9.813-44.375 25.6s-8.96 35.413 0 51.627l238.936 410.026c8.533 14.933 24.316 24.32 41.382 25.6s33.711-6.827 43.951-20.48l66.987-89.173c26.88-35.84 29.013-85.333 5.12-123.733l-142.507-228.267c-20.053-32-54.613-51.2-92.588-51.2zM296.96 298.244h94.719c15.787 0 30.295 8.107 38.402 21.333l142.507 228.266c9.813 15.787 8.96 36.267-2.133 51.2l-55.467 73.813-218.027-374.612zM748.796 234.244h-163.836c-18.347 0-35.418 9.813-44.804 26.027-8.96 16.213-8.96 35.84 0.427 51.627l81.924 136.533c18.773 31.147 69.12 31.147 87.893 0l81.92-136.533c9.387-15.787 9.813-35.84 0.427-51.627-8.107-15.787-25.604-26.027-43.951-26.027zM607.569 298.244h119.044l-59.733 99.413-59.311-99.413zM512-10.667c-253.013 0-458.667 205.653-458.667 458.667s205.653 458.667 458.667 458.667c253.013 0 458.667-205.653 458.667-458.667s-205.653-458.667-458.667-458.667zM512 842.667c-217.6 0-394.667-177.067-394.667-394.667s177.067-394.667 394.667-394.667c217.6 0 394.667 177.067 394.667 394.667s-177.067 394.667-394.667 394.667z" />
<glyph unicode="&#xe956;" glyph-name="award" d="M511.991-10.671c-25.6 0-50.773 5.973-71.253 17.493l-201.815 116.48c-83.627 56.32-89.173 66.56-89.173 154.88v211.627c0 88.322 5.547 98.562 87.467 153.602l203.948 117.76c40.533 23.467 101.547 23.467 142.080 0l201.813-116.48c83.627-56.32 89.173-66.56 89.173-154.882v-211.627c0-88.32-5.547-98.56-87.467-153.6l-203.947-117.76c-20.053-11.947-45.653-17.493-70.827-17.493zM511.991 714.664c-14.507 0-29.013-2.987-39.253-8.96l-201.815-116.48c-57.173-38.827-57.173-38.827-57.173-99.415v-211.627c0-60.587 0-60.587 59.307-100.693l200.108-115.2c20.48-11.947 57.6-11.947 78.080 0l201.813 116.48c57.173 38.827 57.173 38.827 57.173 99.413v211.627c0 60.588 0 60.588-59.307 100.695l-200.107 115.2c-9.813 5.973-24.32 8.96-38.827 8.96zM746.667 602.453c-17.493 0-32 14.507-32 32v112.213c0 67.413-28.587 96-96 96h-213.333c-67.413 0-96-28.587-96-96v-109.227c0-17.493-14.507-32-32-32s-32 14.080-32 32v109.227c0 103.253 56.747 160 160 160h213.333c103.253 0 160-56.747 160-160v-112.213c0-17.493-14.507-32-32-32zM581.555 207.782c-8.96 0-18.347 1.707-27.733 5.547l-41.813 16.213-41.813-16.64c-22.613-8.96-45.652-6.827-62.718 5.547s-26.027 33.707-24.747 58.027l2.56 44.8-28.587 34.56c-15.36 19.2-20.48 41.387-13.653 61.867 6.4 20.053 23.893 35.413 47.36 41.387l43.518 11.093 24.32 37.973c26.027 40.959 81.92 40.959 107.947 0l24.32-37.973 43.52-11.093c23.467-5.973 40.96-21.333 47.36-41.387s1.28-42.667-14.080-61.44l-28.587-34.56 2.56-44.8c1.28-24.32-7.68-45.227-24.747-58.027-10.24-7.253-22.187-11.093-34.987-11.093zM406.197 396.796l28.585-34.56c9.813-11.52 15.36-29.867 14.507-44.8l-2.56-44.8 41.813 16.64c14.080 5.547 32.853 5.547 46.933 0l41.813-16.64-2.56 44.8c-0.853 14.933 4.693 32.853 14.507 44.8l28.587 34.56-43.52 11.093c-14.507 3.84-29.867 14.933-37.973 27.307l-23.893 37.547-24.32-37.547c-8.107-12.8-23.467-23.893-37.973-27.733l-43.945-10.667z" />
<glyph unicode="&#xe957;" glyph-name="back-square" d="M640-10.667h-256c-231.68 0-330.667 98.987-330.667 330.667v256c0 231.68 98.987 330.667 330.667 330.667h256c231.68 0 330.667-98.987 330.667-330.667v-256c0-231.68-98.987-330.667-330.667-330.667zM384 842.667c-196.693 0-266.667-69.973-266.667-266.667v-256c0-196.693 69.973-266.667 266.667-266.667h256c196.693 0 266.667 69.973 266.667 266.667v256c0 196.693-69.973 266.667-266.667 266.667h-256zM593.937 271.799h-209.92c-17.493 0-32 14.507-32 32s14.507 32 32 32h209.92c54.613 0 99.413 44.373 99.413 99.413s-44.373 99.412-99.413 99.412h-288.854c-17.493 0-32 14.507-32 32s14.507 32 32 32h288.854c90.027 0 163.413-73.385 163.413-163.412s-73.387-163.413-163.413-163.413zM365.63 468.489c-8.107 0-16.213 2.987-22.613 9.387l-66.987 66.985c-12.373 12.373-12.373 32.854 0 45.227l66.987 66.987c12.373 12.373 32.853 12.373 45.227 0s12.373-32.854 0-45.227l-44.373-44.373 44.373-44.372c12.373-12.373 12.373-32.853 0-45.227-5.973-5.973-14.080-9.387-22.613-9.387z" />
<glyph unicode="&#xe958;" glyph-name="backward-5-seconds" d="M528.239 238.067h-97.707c-17.493 0-32 14.507-32 32s14.507 32 32 32h97.707c18.347 0 33.28 14.933 33.28 33.28s-14.933 33.28-33.28 33.28h-97.707c-10.24 0-20.052 5.12-26.026 13.227s-7.68 19.2-4.267 29.013l32.426 97.707c4.267 13.227 16.64 21.76 30.293 21.76h130.56c17.493 0 32-14.507 32-32s-14.507-32-32-32h-107.52l-11.093-33.707h53.333c53.76 0 97.28-43.52 97.28-97.28s-43.52-97.28-97.28-97.28zM427.52 737.283c-7.255 0-14.081 2.132-20.055 7.252-13.653 11.093-15.786 31.146-5.12 44.8l84.481 105.385c11.093 13.653 31.147 15.789 44.8 5.123 13.653-11.093 15.787-31.149 5.12-44.802l-84.48-105.385c-5.973-8.107-15.36-12.372-24.747-12.372zM511.974-10.658c-226.56 0-411.308 184.324-411.308 411.311 0 88.32 28.587 173.225 83.2 245.759 10.667 14.080 30.719 17.065 44.8 6.398s17.068-30.72 6.401-44.8c-46.080-61.44-70.401-133.117-70.401-207.357 0-191.573 155.734-347.311 347.308-347.311s347.307 155.738 347.307 347.311c0 191.572-155.733 347.305-347.307 347.305-24.747 0-49.92-2.988-77.227-9.388-17.067-3.84-34.56 6.827-38.4 23.893s6.827 34.561 23.893 38.401c32 7.253 62.293 11.094 91.733 11.094 226.56 0 411.307-184.32 411.307-411.305 0-226.987-184.747-411.311-411.307-411.311z" />
<glyph unicode="&#xe959;" glyph-name="backward-10-seconds" d="M407.021 248.742c-17.493 0-32 14.507-32 32v144.64l-8.107-8.96c-11.947-13.227-32-14.080-45.227-2.56-13.227 11.947-14.080 32-2.56 45.227l64 71.253c8.96 9.814 23.040 13.228 35.413 8.535s20.478-16.641 20.478-29.868v-228.267c0-17.92-14.078-32-31.998-32zM427.52 737.283c-7.255 0-14.081 2.132-20.055 7.252-13.653 11.093-15.786 31.146-5.12 44.8l84.481 105.385c11.093 13.653 31.147 15.789 44.8 5.123s15.787-31.149 5.12-44.802l-84.48-105.385c-5.973-8.107-15.36-12.372-24.747-12.372zM511.974-10.658c-226.56 0-411.308 184.324-411.308 411.311 0 88.32 28.587 173.225 83.2 245.759 10.667 14.080 30.719 17.065 44.8 6.398s17.068-30.72 6.401-44.8c-46.080-61.44-70.401-133.117-70.401-207.357 0-191.573 155.734-347.311 347.308-347.311s347.307 155.738 347.307 347.311c0 191.572-155.733 347.305-347.307 347.305-24.747 0-49.92-2.988-77.227-9.388-17.067-3.84-34.56 6.827-38.4 23.893s6.827 34.561 23.893 38.401c32 7.253 62.293 11.094 91.733 11.094 226.56 0 411.307-184.32 411.307-411.305 0-226.987-184.747-411.311-411.307-411.311zM597.333 248.734c-64.853 0-117.333 52.48-117.333 117.333v57.6c0 64.853 52.48 117.333 117.333 117.333s117.333-52.48 117.333-117.333v-57.6c0-64.853-52.48-117.333-117.333-117.333zM597.333 476.574c-29.44 0-53.333-23.893-53.333-53.333v-57.6c0-29.44 23.893-53.333 53.333-53.333s53.333 23.893 53.333 53.333v57.6c0 29.44-23.893 53.333-53.333 53.333z" />
<glyph unicode="&#xe95a;" glyph-name="backward-15-seconds" d="M615.654 238.067h-97.702c-17.493 0-32 14.507-32 32s14.507 32 32 32h97.702c18.347 0 33.284 14.933 33.284 33.28s-14.938 33.28-33.284 33.28h-97.702c-10.24 0-20.053 5.12-26.027 13.227s-7.684 19.2-4.271 29.013l32.427 97.707c4.267 13.227 16.644 21.76 30.298 21.76h130.56c17.493 0 32-14.507 32-32s-14.507-32-32-32h-107.524l-11.093-33.707h53.333c53.76 0 97.284-43.52 97.284-97.28s-43.951-97.28-97.284-97.28zM407.021 238.089c-17.493 0-32 14.507-32 32v144.636l-8.107-9.382c-11.947-13.227-32-14.080-45.227-2.56-13.227 11.947-14.080 32-2.56 45.227l64 71.253c8.96 9.813 23.041 13.227 35.414 8.533 12.375-4.693 20.477-16.64 20.477-29.867v-228.267c0-17.493-14.078-31.573-31.998-31.573zM427.52 737.283c-7.253 0-14.081 2.132-20.055 7.252-13.653 11.093-15.786 31.146-5.12 44.8l84.481 105.385c11.093 13.653 31.147 15.789 44.8 5.123s15.787-31.149 5.12-44.802l-84.48-105.385c-5.973-8.107-15.36-12.372-24.747-12.372zM511.974-10.658c-226.56 0-411.308 184.324-411.308 411.311 0 88.32 28.587 173.225 83.2 245.759 10.667 14.080 30.719 17.065 44.8 6.398s17.068-30.72 6.401-44.8c-46.080-61.44-70.401-133.117-70.401-207.357 0-191.573 155.734-347.311 347.308-347.311s347.307 155.738 347.307 347.311c0 191.572-155.733 347.305-347.307 347.305-24.747 0-49.92-2.988-77.227-9.388-17.494-3.84-34.561 6.827-38.401 23.893s6.827 34.561 23.893 38.401c32.001 7.253 62.295 11.094 91.735 11.094 226.56 0 411.307-184.32 411.307-411.305 0-226.987-184.747-411.311-411.307-411.311z" />
<glyph unicode="&#xe95b;" glyph-name="backward-item" d="M804.267 458.667h-115.2c-113.493 0-166.4 52.907-166.4 166.4v115.201c0 113.493 52.907 166.4 166.4 166.4h115.2c113.493 0 166.4-52.906 166.4-166.4v-115.201c0-113.493-52.907-166.4-166.4-166.4zM689.067 842.667c-78.507 0-102.4-23.893-102.4-102.4v-115.201c0-78.507 23.893-102.4 102.4-102.4h115.2c78.507 0 102.4 23.893 102.4 102.4v115.201c0 78.507-23.893 102.4-102.4 102.4h-115.2zM334.933-10.667h-115.2c-113.493 0-166.4 52.907-166.4 166.4v115.2c0 113.493 52.907 166.4 166.4 166.4h115.2c113.493 0 166.4-52.907 166.4-166.4v-115.2c0-113.493-52.907-166.4-166.4-166.4zM219.733 373.333c-78.507 0-102.4-23.893-102.4-102.4v-115.2c0-78.507 23.893-102.4 102.4-102.4h115.2c78.507 0 102.4 23.893 102.4 102.4v115.2c0 78.507-23.893 102.4-102.4 102.4h-115.2zM581.124 186.449h-111.787c-17.493 0-32 14.507-32 32v52.48c0 78.507-23.893 102.4-102.4 102.4h-52.48c-17.493 0-32 14.507-32 32v111.787c0 133.119 59.306 192.426 192.426 192.426h111.787c17.493 0 32-14.507 32-32v-52.48c0-78.507 23.893-102.399 102.4-102.399h52.48c17.493 0 32-14.507 32-32v-111.787c0-133.12-59.307-192.427-192.427-192.427zM501.338 250.449h79.787c97.28 0 128.427 31.147 128.427 128.427v79.787h-20.48c-113.493 0-166.4 52.907-166.4 166.399v20.48h-79.787c-97.28 0-128.426-31.147-128.426-128.426v-79.787h20.48c113.493 0 166.4-52.907 166.4-166.4v-20.48z" />
<glyph unicode="&#xe95c;" glyph-name="backward" d="M855.467 176.636c-19.627 0-39.68 5.12-57.6 15.787l-270.507 156.16c-12.373 7.253-22.187 15.787-29.44 25.173-4.693 5.547-7.253 12.8-7.253 20.053v109.227c0 7.253 2.56 14.507 7.253 20.053 7.68 9.387 17.493 17.921 29.44 24.748l270.933 156.587c35.84 20.907 78.933 20.907 115.2 0s57.6-58.026 57.6-99.84v-312.322c0-41.813-21.333-78.933-57.6-99.84-18.347-10.667-38.4-15.787-58.027-15.787zM554.24 407.036c1.707-1.28 3.413-2.56 5.12-3.413l270.080-155.733c16.213-9.387 35.413-9.387 51.2 0 16.213 9.387 25.6 26.027 25.6 44.373v312.322c0 18.347-9.387 34.985-25.6 44.372s-34.987 9.387-51.2 0l-270.507-156.161c-1.707-0.853-3.413-2.133-4.693-3.413v-82.347zM439.040 176.636c-19.626 0-39.68 5.12-57.6 15.787l-270.506 156.16c-35.84 20.907-57.6 58.027-57.6 99.84s21.334 78.933 57.6 99.842l270.506 156.16c35.84 20.907 78.933 20.907 115.2 0s57.6-58.026 57.6-99.84v-312.322c0-41.813-21.333-78.933-57.6-99.84-17.92-10.667-37.973-15.787-57.6-15.787zM439.040 655.357c-8.96 0-17.493-2.132-25.6-6.826l-270.506-156.162c-16.213-9.387-25.6-26.027-25.6-44.373s9.387-34.987 25.6-44.373l270.506-156.16c16.213-9.387 35.413-9.387 51.2 0 16.213 9.387 25.6 25.6 25.6 44.373v312.322c0 18.347-9.387 34.987-25.6 44.373-8.107 4.693-16.64 6.826-25.6 6.826z" />
<glyph unicode="&#xe95d;" glyph-name="bag-2" d="M704 591.795c-17.493 0-32 14.507-32 32v58.88c0 44.8-19.2 88.32-52.48 118.613-33.707 30.72-77.227 44.8-123.307 40.533-76.8-7.253-144.213-85.76-144.213-167.68v-41.387c0-17.493-14.507-32-32-32s-32 14.507-32 32v41.813c0 114.773 92.587 220.587 202.24 231.253 64 5.973 125.44-14.080 172.373-57.173 46.507-42.24 73.387-102.827 73.387-165.973v-58.88c0-17.493-14.507-32-32-32zM639.991-10.667h-255.999c-197.12 0-233.813 91.733-243.2 180.907l-32 255.573c-4.693 46.080-6.4 112.213 38.4 161.707 38.4 42.667 101.973 63.147 194.133 63.147h341.332c92.587 0 156.16-20.907 194.133-63.147 44.373-49.493 43.093-115.627 38.4-160.853l-32-256.427c-9.387-89.173-46.080-180.907-243.2-180.907zM341.326 586.667c-72.107 0-121.6-14.080-146.773-42.24-20.907-23.040-27.733-58.453-22.187-111.36l32-255.573c7.253-68.267 26.027-124.587 179.627-124.587h255.999c153.6 0 172.373 55.893 179.627 123.733l32 256.427c5.547 52.053-1.28 87.467-22.187 110.933-25.173 28.587-74.667 42.667-146.773 42.667h-341.332zM657.929 398.938c-23.893 0-43.093 19.2-43.093 42.667s19.2 42.667 42.667 42.667c23.467 0 42.667-19.2 42.667-42.667s-18.773-42.667-42.24-42.667zM359.26 398.938c-23.893 0-43.093 19.2-43.093 42.667s19.2 42.667 42.667 42.667c23.467 0 42.667-19.2 42.667-42.667s-18.773-42.667-42.24-42.667z" />
</font>
</defs>
</svg>
